<?xml version="1.0" standalone="no"?>
<!DOCTYPE svg PUBLIC "-//W3C//DTD SVG 1.1//EN" "http://www.w3.org/Graphics/SVG/1.1/DTD/svg11.dtd" >
<svg xmlns="http://www.w3.org/2000/svg" xmlns:xlink="http://www.w3.org/1999/xlink" version="1.1">
<metadata>
Created by FontForge 20170731 at Fri May  5 14:18:46 2017
 By Aleksey,,,
Copyright (c) 2015, Tharique Azeez (http://thariqueazeez.com|zeezat@gmail.com)
</metadata>
<defs>
<font id="Kavivanar-Regular" horiz-adv-x="190" >
  <font-face 
    font-family="Kavivanar"
    font-weight="400"
    font-stretch="normal"
    units-per-em="1000"
    panose-1="2 0 5 3 0 0 0 0 0 0"
    ascent="800"
    descent="-200"
    x-height="540"
    cap-height="757"
    bbox="-292.486 -389.83 2236.23 1061.24"
    underline-thickness="0"
    underline-position="0"
    unicode-range="U+0020-FB02"
  />
<missing-glyph horiz-adv-x="347" 
d="M115 638l222 -2q6 0 5 -6l-54 -617q-3 -12 -12 -22t-21 -10h-226q-6 0 -5 6l58 619q3 12 12.5 22t20.5 10zM117 600l-54 -581h190l50 579z" />
    <glyph glyph-name=".notdef" horiz-adv-x="347" 
d="M115 638l222 -2q6 0 5 -6l-54 -617q-3 -12 -12 -22t-21 -10h-226q-6 0 -5 6l58 619q3 12 12.5 22t20.5 10zM117 600l-54 -581h190l50 579z" />
    <glyph glyph-name="uni0000" horiz-adv-x="0" 
 />
    <glyph glyph-name="uni0000" horiz-adv-x="0" 
 />
    <glyph glyph-name="uni000D" horiz-adv-x="333" 
 />
    <glyph glyph-name="space" unicode=" " horiz-adv-x="209" 
 />
    <glyph glyph-name="exclam" unicode="!" horiz-adv-x="199" 
d="M144 722q12 16 25 24.5t21 10.5q18 5 17 -11l-56 -574q-1 -12 -13 -28t-25 -24.5t-21 -10.5q-18 -5 -17 11l56 574q1 12 13 28zM102 -19q-19 0 -31.5 10t-14 32t12.5 33t33 11t33 -11t14 -32t-14 -32t-33 -11z" />
    <glyph glyph-name="quotedbl" unicode="&#x22;" horiz-adv-x="237" 
d="M95 676q12 16 25 24.5t21 10.5q18 5 17 -11l-20 -208q-1 -12 -13 -28t-25 -24.5t-21 -10.5q-18 -5 -17 11l20 208q1 12 13 28zM212 682q12 16 25 24.5t21 10.5q18 5 17 -11l-19 -210q-1 -11 -13 -27.5t-25 -25t-21 -10.5q-18 -5 -17 11l19 210q1 12 13 28z" />
    <glyph glyph-name="numbersign" unicode="#" horiz-adv-x="566" 
d="M313 752.5q15 8.5 23.5 5t4.5 -16.5l-67 -240l158 -2l59 201q4 13 17.5 28.5t29 24t23.5 4.5t4 -17l-71 -241l100 -1q15 0 8 -19q-8 -25 -30.5 -41t-33.5 -16h-67l-39 -134h130q15 0 8 -19q-8 -25 -30.5 -41t-33.5 -16h-97l-56 -192q-4 -13 -17.5 -28.5t-29 -24
t-23.5 -4.5t-4 17l68 232h-153l-53 -191q-4 -13 -17.5 -29t-28.5 -24t-23.5 -5t-4.5 16l65 233h-102q-15 0 -8 19q8 25 30.5 41t33.5 16h67l38 137l-119 1q-15 0 -8 19q8 25 30.5 41t33.5 16l84 -1l55 198q4 13 17.5 29t28.5 24.5zM410 423l-157 1l-38 -136h155z" />
    <glyph glyph-name="dollar" unicode="$" horiz-adv-x="624" 
d="M373 800q12 16 25 24.5t22 10.5q18 4 16 -12l-8 -73q51 -14 95 -47q62 -44 98 -112q7 -13 -16 -41q-19 -22 -34 -27q-20 -7 -24 1q-38 61 -93 107q-18 11 -36 20l-26 -245q30 -11 38 -14l9 -4q59 -28 86 -53q50 -47 60 -114q10 -70 -37 -139q-26 -39 -64 -68
q-66 -50 -140 -55l-2 -24q-1 -12 -13 -27.5t-25 -24t-22 -10.5q-18 -4 -16 12l8 78q-73 13 -134 61t-95 118q-7 14 17 41q19 22 33 27q19 6 24 -1q37 -62 90 -112q36 -24 75 -41l30 279q-3 1 -12.5 4.5t-43.5 15.5q-36 13 -68 37q-46 33 -65.5 78.5t-9.5 100.5q11 57 61 108
q80 81 183 80l1 14q1 11 13 27zM350 676q-13 3 -25 6q-39 1 -78 -7q-21 -9 -38 -21q-12 -18 -19 -41q-2 -39 9 -77q23 -41 60 -72q31 -19 65 -34zM353 37q46 -2 91 8q28 14 48 33q17 40 16 87q-16 55 -53 98q-34 27 -73 47z" />
    <glyph glyph-name="percent" unicode="%" horiz-adv-x="778" 
d="M769.5 708q6.5 -5 1 -19t-19.5 -29l-630 -662q-14 -15 -29 -22t-21.5 -2t-1 19t19.5 29l630 662q14 15 29 22t21.5 2zM283 697q154 -52 61 -230q-18 -34 -47 -67t-65 -48.5t-61.5 -12.5t-54.5 16q-109 52 -58 175q24 59 58 100q80 95 167 67zM219 623q-44 14 -59 -5
q-16 -19 -32 -56q-37 -90 54 -133q26 -12 46.5 -13.5t28.5 3.5l7 4q6 7 14 22q69 134 -59 178zM697 333q154 -52 61 -230q-18 -34 -47 -67t-65 -48.5t-61.5 -12.5t-54.5 16q-109 52 -58 175q24 59 58 100q80 95 167 67zM633 259q-44 14 -59 -5q-16 -19 -32 -56
q-37 -90 54 -133q26 -12 46.5 -13.5t28.5 3.5l7 4q6 7 14 22q69 134 -59 178z" />
    <glyph glyph-name="ampersand" unicode="&#x26;" horiz-adv-x="687" 
d="M474 90q-140 149 -213 260q-63 -17 -102 -45t-42 -98q-7 -181 216 -169q91 5 141 52zM326 430q52 15 80.5 29t40.5 26q2 3 2 6q25 84 -2 122t-110 31q-49 -4 -75 -18q-8 -23 5 -73q15 -54 59 -123zM530 176q30 67 45 162q2 12 14.5 28t28 25.5t25.5 8t8 -13.5
q-24 -149 -86 -247q48 -50 101 -104q6 -6 0 -20.5t-20.5 -29t-29.5 -20.5t-20 0q-50 50 -95 96q-95 -92 -220 -99q-247 -14 -240 191q2 55 32 110q47 86 158 136q-39 69 -47 106.5t-1.5 64.5t24.5 54q35 51 81 71t101 25q96 8 130.5 -39.5t3.5 -149.5q-15 -47 -62 -87
t-102 -63q65 -90 171 -205z" />
    <glyph glyph-name="quotesingle" unicode="'" horiz-adv-x="130" 
d="M105.5 680q12.5 16 25 24.5t21 10.5t13 -1t3.5 -11l-23 -212q-1 -12 -13.5 -27.5t-25 -24t-21 -10.5t-13 1t-3.5 11l23 212q1 11 13.5 27z" />
    <glyph glyph-name="parenleft" unicode="(" horiz-adv-x="311" 
d="M262.5 -65.5q-13.5 -15.5 -29 -24t-23.5 -5.5q-204 74 -176 379q16 178 78 290q39 69 98 117.5t123 65.5q13 4 16 -4.5t-5.5 -23.5t-24 -28.5t-28.5 -17.5q-44 -12 -68.5 -32t-46.5 -59q-51 -92 -66 -256q-26 -287 164 -357q8 -3 5 -16t-16.5 -28.5z" />
    <glyph glyph-name="parenright" unicode=")" horiz-adv-x="323" 
d="M96 728q13 15 28.5 24t23.5 5q204 -80 178 -403q-23 -277 -174 -395q-59 -46 -122 -62q-13 -3 -15.5 5.5t6 23.5t24.5 28.5t29 16.5q44 11 68 30t45 55q50 87 63 246q25 306 -166 381q-8 3 -4.5 16.5t16.5 28.5z" />
    <glyph glyph-name="asterisk" unicode="*" horiz-adv-x="383" 
d="M221.5 677q11.5 16 24.5 24.5t21 11.5q19 5 18 -11l-8 -141l132 66q15 7 22 3t2 -18t-19 -29t-29 -23l-67 -34l98 -53q7 -4 3 -18t-17.5 -29t-29 -23t-22.5 -4l-80 43l-3 -62q-1 -11 -12.5 -27t-24.5 -24.5t-21 -11.5q-19 -5 -18 11l8 139l-132 -66q-15 -7 -22 -3
t-2 17.5t19 29t29 22.5l69 35l-100 55q-7 4 -3 18t17.5 29t29 23t22.5 3l79 -43l4 63q1 11 12.5 27z" />
    <glyph glyph-name="plus" unicode="+" horiz-adv-x="399" 
d="M215 504.5q12 15.5 24.5 24.5t21.5 11q18 5 17 -11l-13 -159l148 2q15 0 10 -19q-8 -25 -31 -41t-33 -16l-100 -1l-9 -109q-1 -11 -13 -27t-24.5 -25t-21.5 -11q-18 -5 -17 11l13 160l-150 -2q-15 0 -10 19q8 25 31 41t33 16l102 1l9 108q1 12 13 27.5z" />
    <glyph glyph-name="comma" unicode="," horiz-adv-x="206" 
d="M95 117.5q15 13.5 28.5 17.5t16.5 -4q53 -126 -66 -248q-14 -15 -29 -21.5t-21 -1t0 20t21 29.5q15 16 24.5 36.5t11 52t-14.5 66.5q-3 8 5.5 23.5t23.5 29z" />
    <glyph glyph-name="hyphen" unicode="-" horiz-adv-x="336" 
d="M30 193q3 9 12 22t25 24t27 11l231 -1q15 0 8 -19q-8 -25 -30.5 -41t-33.5 -16l-231 1q-14 0 -8 19z" />
    <glyph glyph-name="period" unicode="." horiz-adv-x="201" 
d="M74 91q39 45 72 -2q28 -39 -5 -76q-39 -44 -67 0.5t0 77.5z" />
    <glyph glyph-name="slash" unicode="/" horiz-adv-x="307" 
d="M330.5 741q14.5 7 21.5 2t2 -19l-264 -718q-5 -14 -19.5 -29t-29 -22t-21.5 -2t-2 19l264 718q5 14 19.5 29t29 22z" />
    <glyph glyph-name="zero" unicode="0" horiz-adv-x="602" 
d="M403 759q218 -26 174 -410q-11 -93 -32.5 -160.5t-63.5 -121.5q-93 -121 -226 -105q-207 24 -170 371q12 110 35.5 187t69.5 136q91 118 213 103zM344 683q-74 9 -105 -32q-23 -30 -45.5 -101t-32.5 -167q-35 -324 152 -345q84 -10 119 34q21 27 40.5 86.5t28.5 140.5
q42 360 -157 384z" />
    <glyph glyph-name="one" unicode="1" horiz-adv-x="243" 
d="M75.5 585q-5.5 6 1 21t21.5 29l102 100l23 21q30 22 28 -10l-60 -720q-1 -11 -13 -27t-24.5 -25t-21.5 -11q-18 -5 -17 11l56 677l-47 -46q-15 -14 -29 -20t-19.5 0z" />
    <glyph glyph-name="two" unicode="2" horiz-adv-x="593" 
d="M50 15l329 321q174 203 115 283q-38 52 -161 63q-74 6 -106 -37t-55 -121q-4 -13 -17.5 -29t-28.5 -24t-23.5 -4.5t-4.5 16.5q29 99 77 163t104.5 90.5t114.5 21.5q264 -22 159 -244q-41 -86 -137 -198q-3 -4 -7 -7l-278 -270q93 0 396 -1q15 0 8 -19q-8 -25 -30.5 -41
t-33.5 -16q-410 1 -434 0q-1 0 10 40z" />
    <glyph glyph-name="three" unicode="3" horiz-adv-x="568" 
d="M131 558.5q-14 -5.5 -19.5 0.5t4 27.5t28.5 47.5q90 125 249 124q208 -1 151 -206q-29 -106 -109 -169q128 -43 98 -192q-14 -67 -50 -117q-81 -113 -222 -112q-186 1 -197 161q-1 10 10 26t23.5 26t21.5 13q20 7 21 -7q10 -142 177 -143q36 0 62 7q38 11 53.5 32.5
t24.5 67.5q19 90 -34 135.5t-182 43.5q-3 0 -4.5 0.5t-2.5 0.5q-14 1 -7 20q9 26 31.5 41.5t33.5 14.5q63 -4 99 10.5t51.5 35.5t27.5 63q23 85 -9 128t-124 44q-61 0 -94.5 -15t-44 -29.5t-17 -29.5t-21.5 -29.5t-29 -20z" />
    <glyph glyph-name="four" unicode="4" horiz-adv-x="606" 
d="M362 225l36 381l-243 -381h207zM433 225h125q15 0 8 -19q-8 -25 -30.5 -41t-33.5 -16h-76l-12 -123q-1 -11 -13 -27.5t-25 -25t-21 -10.5q-18 -5 -17 11l17 175h-279q-13 0 -10.5 12t9.5 21l340 533q29 46 55 39q6 -2 12 -8z" />
    <glyph glyph-name="five" unicode="5" horiz-adv-x="600" 
d="M94 168.5q15 12.5 28 15.5t16 -6q42 -150 192 -140q96 6 129 50q9 12 19.5 43.5t13.5 74.5q10 150 -73 187t-261 -36q-12 -5 -18 -1.5t-4 13.5l64 328q8 38 39 55q12 7 27 6h306q15 0 8 -19q-8 -25 -30.5 -41t-33.5 -16h-252l-48 -244q184 70 273 24.5t79 -206
t-132 -243.5q-66 -46 -158 -51q-169 -11 -216 154q-2 9 7.5 24.5t24.5 28z" />
    <glyph glyph-name="six" unicode="6" horiz-adv-x="596" 
d="M153 289q-4 -251 179 -251q38 0 67 8q42 12 56.5 32.5t24.5 57.5q63 240 -150 250q-104 5 -158 -66q-9 -12 -13 -20t-6 -11zM157 364q101 104 229 98q239 -12 168 -284q-15 -56 -46 -100q-84 -116 -232 -116q-246 0 -189 397q37 263 175 357q51 35 101 42
q194 26 227 -134q2 -9 -8 -25t-25.5 -28t-28 -14.5t-14.5 6.5q-29 142 -201 119q-33 -5 -49.5 -16t-31.5 -34q-56 -85 -75 -268z" />
    <glyph glyph-name="seven" unicode="7" horiz-adv-x="536" 
d="M105 701q3 9 12 22t25 24t27 11h389q8 0 9.5 -8t-3.5 -18l-351 -720q-7 -15 -22.5 -29t-29 -19t-18.5 2t2 22l339 694h-371q-14 0 -8 19z" />
    <glyph glyph-name="eight" unicode="8" horiz-adv-x="582" 
d="M382 753q199 3 173 -225q-10 -88 -79 -148q102 -48 74 -194q-11 -60 -46 -108q-85 -117 -251 -116q-197 1 -191 157q3 103 53 172q30 41 68 67q-59 41 -54 133.5t49 154.5q73 105 204 107zM328 677q-33 -1 -57 -8q-31 -9 -39 -21q-23 -32 -27 -102q-7 -134 140 -143h26
t36 3q42 5 54 16q5 5 10.5 22.5t7.5 33.5q24 202 -151 199zM283 327q-36 0 -64 -8q-40 -11 -50.5 -26.5t-20 -47t-10.5 -72.5q-5 -134 171 -135q45 0 78 9q50 13 65 33t22 60q33 170 -146 185q-23 -1 -45 2z" />
    <glyph glyph-name="nine" unicode="9" horiz-adv-x="573" 
d="M483 401q33 280 -196 281q-61 0 -79 -25q-12 -17 -23.5 -56.5t-14.5 -92.5q-10 -163 145 -180q104 -12 156 56q6 8 12 17zM471 325q-97 -87 -214 -73q-174 20 -163 204q4 63 17 110.5t44 90.5q74 102 188 101q283 -1 204 -383q-62 -301 -203 -384q-49 -29 -93 -29
q-135 0 -200 82q-5 6 2 21.5t21.5 29.5t29 19.5t19.5 -0.5q60 -76 184 -76q30 0 44.5 9t28.5 29q54 74 91 249z" />
    <glyph glyph-name="colon" unicode=":" horiz-adv-x="223" 
d="M91 164q39 45 72 -2q28 -39 -5 -76q-39 -44 -67 0.5t0 77.5zM116 464q39 45 72 -2q28 -39 -5 -76q-39 -44 -67 0.5t0 77.5z" />
    <glyph glyph-name="semicolon" unicode=";" horiz-adv-x="206" 
d="M95 117.5q15 13.5 28.5 17.5t16.5 -4q53 -126 -66 -248q-14 -15 -29 -21.5t-21 -1t0 20t21 29.5q15 16 24.5 36.5t11 52t-14.5 66.5q-3 8 5.5 23.5t23.5 29zM116 464q39 45 72 -2q28 -39 -5 -76q-39 -44 -67 0.5t0 77.5z" />
    <glyph glyph-name="less" unicode="&#x3c;" horiz-adv-x="517" 
d="M534 418.5q-7 -14.5 -22 -29t-29 -19.5l-309 -115l328 -137q8 -3 4 -16.5t-17.5 -28.5t-29 -24t-23.5 -5l-397 165q-31 13 50 73l428 160q14 5 19 -2t-2 -21.5z" />
    <glyph glyph-name="equal" unicode="=" horiz-adv-x="380" 
d="M51 262q3 9 12 22t25 24t27 11h255q15 0 8 -19q-8 -25 -30.5 -41t-33.5 -16h-255q-14 0 -8 19zM41 143q3 9 12 22t25 24t27 11l255 -1q15 0 8 -19q-8 -25 -30.5 -41t-33.5 -16l-255 1q-14 0 -8 19z" />
    <glyph glyph-name="greater" unicode="&#x3e;" horiz-adv-x="487" 
d="M41.5 421.5q13.5 15.5 29 24t23.5 4.5l393 -167q7 -31 -21 -56q-11 -10 -28 -17l-420 -167q-14 -6 -19.5 1t1 21.5t21.5 29t29 20.5l307 121l-329 140q-8 3 -4 16.5t17.5 29z" />
    <glyph glyph-name="question" unicode="?" horiz-adv-x="554" 
d="M153.5 533q-11.5 -16 -24.5 -25t-22 -11q-19 -5 -17 11q6 88 53 149q58 75 135 94q76 19 151 7q138 -15 125 -212q-6 -83 -44.5 -146t-97.5 -99t-125 -49l-1 -45q0 -11 -11.5 -27t-24.5 -25t-21 -12q-19 -6 -19 10l2 102q0 23 16.5 39.5t31.5 20.5l16 5q74 5 115 24
t55 39q27 39 32 110q12 176 -107 189q-58 8 -99 0q-67 -13 -80 -30q-8 -10 -16 -34.5t-10 -57.5q-1 -11 -12.5 -27zM222 84q12 16 24.5 25t21.5 12q19 5 18 -10l-4 -84q-1 -11 -12.5 -27t-24 -25t-21.5 -12q-19 -5 -18 10l4 84q0 11 12 27z" />
    <glyph glyph-name="at" unicode="@" horiz-adv-x="831" 
d="M586 429q15 19 31.5 29t25 7.5t5.5 -15.5l-65 -281q-8 -59 49 -63q42 -3 63 10q10 10 22 43.5t17 75.5q21 168 -51.5 248t-240.5 73q-102 -5 -168 -46q-99 -61 -135 -246q-45 -235 103 -313q189 -101 364 -8q15 8 23 4t3.5 -17.5t-18 -29t-28.5 -23.5q-205 -109 -410 0
q-161 85 -113 335.5t223 358.5q91 56 210 61q179 8 258 -79t56 -268q-9 -72 -36.5 -130t-83 -94t-116 -31.5t-67.5 54.5q-111 -113 -227 -63q-99 43 -46 231q28 97 105 154q47 35 94 47q86 22 153 -24zM554 324q-1 0 -1 1q-72 77 -162 54q-31 -8 -44 -17q-25 -19 -39 -70
q-45 -161 39 -197.5t138 25.5q14 16 22.5 29t9.5 14z" />
    <glyph glyph-name="A" unicode="A" horiz-adv-x="650" 
d="M70 -35.5q-14 -5.5 -19.5 1t1.5 20.5l330 720l30 35q37 35 42 10l150 -720q2 -9 -8 -25t-25.5 -28.5t-28 -15t-14.5 6.5l-47 229h-3h-273l-85 -184q-7 -15 -21.5 -29.5t-28.5 -20zM465 274l-71 338l-154 -338h225z" />
    <glyph glyph-name="B" unicode="B" horiz-adv-x="600" 
d="M479 377q22 -14 51.5 -48.5t39 -84t-9.5 -95t-54 -83.5q-79 -85 -215 -104q-95 -12 -220 0q-10 1 -9 12l62 720q12 43 42 59q12 6 25 5q95 -9 174 -25t121 -47q80 -59 82 -140q1 -88 -89 -169zM472.5 87.5q7.5 7.5 18 33.5t3 66.5t-43 81.5t-55.5 43q-32 2 -79.5 2
t-152.5 4l-24 -281q212 -19 308 32q18 11 25.5 18.5zM170 402l173 -8q37 -2 67 -4q29 2 56 29t26 66q-2 75 -66 123q-47 35 -135 52q-42 8 -97 15z" />
    <glyph glyph-name="C" unicode="C" horiz-adv-x="674" 
d="M630 515q-12 -16 -25 -24.5t-21 -10.5q-18 -5 -17 11q4 42 -13.5 82.5t-52.5 67.5t-77.5 35t-82.5 -3q-125 -34 -174 -245q-37 -159 20 -265q32 -60 89 -93.5t121.5 -31.5t104.5 30t57 74q6 14 20.5 29t29 21.5t21 1t1.5 -19.5q-17 -42 -49.5 -83.5t-75.5 -71.5
q-76 -54 -155.5 -56.5t-141 33.5t-95.5 99q-62 116 -21 289q46 199 178 304q105 83 212 64q49 -9 87 -39t58 -75t15 -95q-1 -12 -13 -28z" />
    <glyph glyph-name="D" unicode="D" horiz-adv-x="643" 
d="M51 -26l70 720q6 38 37 56q12 7 27 8q454 27 442 -371q-5 -150 -83.5 -254.5t-198.5 -142.5t-285 -28q-10 0 -9 12zM128 37q146 -8 239 22.5t128 78.5q51 69 56 195q5 174 -84 261.5t-276 89.5z" />
    <glyph glyph-name="E" unicode="E" horiz-adv-x="576" 
d="M581 758q10 0 10 -10q0 -11 -11.5 -27t-27.5 -27.5t-27 -11.5h-337l-24 -280h341q15 0 8 -19q-8 -25 -30.5 -41t-33.5 -16h-292l-24 -288h385q15 0 8 -19q-8 -25 -30.5 -41t-33.5 -16h-393q-7 -1 -10.5 2.5t-2.5 11.5l61 718q1 11 13 28q22 29 46 35q5 1 7 1h4h394z" />
    <glyph glyph-name="F" unicode="F" horiz-adv-x="581" 
d="M117 694q1 11 18 34t41 29q5 1 7 1h4h394q15 0 8 -19q-8 -25 -30.5 -41t-33.5 -16h-337l-24 -280h341q15 0 8 -19q-8 -25 -30.5 -41t-33.5 -16h-292l-25 -298q1 -21 -30 -48q-11 -10 -24.5 -15.5t-18 -1t-3.5 12.5z" />
    <glyph glyph-name="G" unicode="G" horiz-adv-x="637" 
d="M554 59q-97 -96 -217 -97q-70 0 -130 35t-93 98q-37 70 -37 161q0 59 16 128q44 194 167 298q89 75 184 75q67 0 114 -34q86 -62 86 -161q0 -9 -1 -20t-13 -27t-25 -24.5t-21.5 -10.5t-13 1t-3.5 10.5t1 14.5q0 37 -17.5 75.5t-55.5 65.5q-48 34 -106 34q-68 0 -115 -40
q-21 -18 -43 -52q-41 -65 -59.5 -144t-18.5 -134q0 -84 33 -146q67 -127 206 -127q68 0 116 35q34 24 51 69q1 3 4 6l14 151l-237 3q-15 0 -8 19q8 25 30.5 41t33.5 16l248 -3q11 0 10 -12l-32 -337q-1 -11 -13 -27.5t-25 -25t-21 -10.5q-18 -5 -17 11z" />
    <glyph glyph-name="H" unicode="H" horiz-adv-x="578" 
d="M128 721.5q12 15.5 25 24.5t21 11q18 5 17 -11l-29 -346h318l25 294q1 11 13 27t25 25t21 11q18 5 17 -11l-61 -720q-1 -11 -13 -27t-25 -25t-21 -11q-18 -5 -17 11l30 350h-319l-25 -298q-1 -11 -13 -27t-25 -25t-21 -11q-18 -5 -17 11l61 720q1 12 13 27.5z" />
    <glyph glyph-name="I" unicode="I" horiz-adv-x="247" 
d="M146 721.5q12 15.5 25 24.5t21 11q18 5 17 -11l-61 -720q-1 -11 -13 -27t-25 -25t-21 -11q-18 -5 -17 11l61 720q1 12 13 27.5z" />
    <glyph glyph-name="J" unicode="J" horiz-adv-x="484" 
d="M431.5 722q12.5 16 25 24.5t21 10.5t13 -1t3.5 -11l-64 -572q-7 -69 -43 -118q-67 -94 -181 -93q-169 1 -176 160q0 10 10.5 26t23.5 25.5t22 12.5q19 7 20 -8q7 -139 156 -140q51 0 71 15q6 7 12.5 29t8.5 41l64 572q1 11 13.5 27z" />
    <glyph glyph-name="K" unicode="K" horiz-adv-x="580" 
d="M106 722q12 16 25 24.5t21 10.5q18 5 17 -11l-37 -417l354 400q13 15 28.5 23.5t23.5 5t4 -17t-18 -29.5l-222 -251l228 -427q4 -7 -4 -22.5t-23 -29t-29 -18t-18 3.5l-222 416l-108 -122l-21 -235q-1 -11 -13 -27t-25 -25t-21 -11q-18 -5 -17 11l64 720q1 12 13 28z" />
    <glyph glyph-name="L" unicode="L" horiz-adv-x="541" 
d="M66 -38q-11 0 -10 12l61 720q1 11 13 27t25 25t21 11q18 5 17 -11l-60 -708h352q15 0 8 -19q-8 -25 -30.5 -41t-33.5 -16h-363z" />
    <glyph glyph-name="M" unicode="M" horiz-adv-x="735" 
d="M674 -1.5q-12 -15.5 -25 -24.5t-21 -11q-18 -5 -17 11l53 617l-247 -435q-21 -31 -36.5 -42t-22 -9.5t-10.5 11.5l-176 435l-55 -526q-1 -12 -13 -27.5t-25 -24t-21 -10.5q-18 -4 -17 12l75 720q1 12 20 26t37 23l18 9l212 -526l276 485q24 41 55 39q7 0 15 -5l-62 -720
q-1 -12 -13 -27.5z" />
    <glyph glyph-name="N" unicode="N" horiz-adv-x="607" 
d="M117 -2q-12 -16 -25 -24.5t-21 -10.5q-18 -5 -17 11l70 720q38 47 54.5 56.5t20.5 2.5l296 -600l47 541q1 11 13 27.5t25 25t21 10.5q18 5 17 -11l-63 -720q-1 -12 -20 -27t-37 -23l-18 -9l-297 603l-53 -544q-1 -12 -13 -28z" />
    <glyph glyph-name="O" unicode="O" horiz-adv-x="673" 
d="M432 758q262 -8 224 -395q-17 -170 -89 -269q-101 -137 -263 -132q-263 8 -228 365q9 96 31.5 168t66.5 130q101 138 258 133zM376 682q-106 3 -151 -58q-24 -33 -44.5 -97t-28.5 -148q-33 -333 208 -341q110 -4 155 57q22 30 40 86.5t25 129.5q36 363 -204 371z" />
    <glyph glyph-name="P" unicode="P" horiz-adv-x="569" 
d="M117 694q1 11 18 34q21 28 46 30q116 43 225 -1q76 -30 120.5 -96.5t33.5 -147.5q-6 -46 -34 -94.5t-75 -87.5q-75 -63 -174 -83q-63 -12 -127 -5l-18 -215q1 -21 -30 -48q-11 -10 -24.5 -15.5t-18 -1t-3.5 12.5zM189 698l-31 -370q85 -20 161.5 -5.5t116.5 48.5t49 98
t-31.5 124.5t-102 84.5t-100 24t-62.5 -4z" />
    <glyph glyph-name="Q" unicode="Q" horiz-adv-x="668" 
d="M432 758q262 -8 224 -395q-20 -199 -120 -306l100 -154q5 -7 -2.5 -22t-22.5 -29t-29 -19t-18 2l-105 162q-69 -37 -155 -35q-263 8 -228 365q9 96 31.5 168t66.5 130q101 138 258 133zM376 682q-106 3 -151 -58q-24 -33 -44.5 -97t-28.5 -148q-33 -333 208 -341
q38 -1 68 5l-16 26q-5 7 2.5 22t22.5 29t29 19t18 -2l29 -44q23 29 41.5 87t25.5 131q36 363 -204 371z" />
    <glyph glyph-name="R" unicode="R" horiz-adv-x="597" 
d="M319 259q-59 -18 -102.5 -18t-66.5 2l-18 -217q-1 -11 -13 -27t-25 -25t-21 -11q-18 -5 -17 11l61 720q1 11 13 28q25 33 50 36q59 24 121.5 24t117.5 -25q72 -33 107.5 -91t35.5 -121q0 -119 -111 -214q-22 -19 -46 -33l112 -265q3 -8 -5.5 -23.5t-23.5 -29t-28.5 -17.5
t-16.5 4zM381 340q105 42 105 150q0 55 -32.5 109t-91.5 80.5t-117 26.5q-29 0 -56 -6l-31 -372q104 -25 199 4q14 9 24 8z" />
    <glyph glyph-name="S" unicode="S" horiz-adv-x="624" 
d="M594 539.5q-15 -13.5 -29 -18t-18 2.5q-34 65 -94 108t-128 50q-42 4 -73.5 -5.5t-44 -22.5t-18.5 -46.5t11 -73.5t54 -66.5t91 -45.5q3 -1 39 -13.5t55 -20.5q129 -55 145 -163q11 -72 -35 -141q-26 -40 -64 -69q-95 -72 -207 -53q-75 13 -137 61.5t-96 118.5
q-4 8 4.5 23t23.5 28.5t28.5 18t17.5 -3.5q33 -66 91.5 -112t122 -57t105 3.5t54.5 34.5q24 37 16 90q-14 95 -134 147q-18 8 -54 19q-93 32 -134 62t-61 75.5t-9.5 100.5t59.5 107q89 92 208 80q75 -8 138.5 -53.5t99.5 -113.5q4 -7 -4 -22.5t-23 -29z" />
    <glyph glyph-name="T" unicode="T" horiz-adv-x="527" 
d="M34 701q3 9 12 22t25 24t27 11h453q15 0 8 -19q-8 -25 -30.5 -41t-33.5 -16h-155l-56 -656q-1 -11 -13 -27t-25 -25t-21 -11q-18 -5 -17 11l60 708h-226q-14 0 -8 19z" />
    <glyph glyph-name="U" unicode="U" horiz-adv-x="620" 
d="M569 722q12 16 25 24.5t21 10.5q18 5 17 -11l-51 -566q0 -3 -1 -6q-16 -51 -47 -93q-54 -72 -123.5 -97.5t-154.5 -21.5q-205 12 -179 213l42 519q1 11 13 27t24.5 25t21.5 11q18 5 17 -11l-42 -521q-23 -177 161 -187q72 -4 114 11.5t55.5 33.5t22.5 48l51 563
q1 12 13 28z" />
    <glyph glyph-name="V" unicode="V" horiz-adv-x="613" 
d="M108.5 742q15.5 13 28 15.5t15.5 -6.5l165 -640l244 593q6 14 20.5 29t29 21.5t20.5 1t0 -19.5l-296 -720q-10 -25 -28 -36.5t-31 -11.5l-14 1l-186 720q-2 9 7.5 24.5t25 28.5z" />
    <glyph glyph-name="W" unicode="W" horiz-adv-x="899" 
d="M916.5 754q14.5 7 21.5 2.5t2 -18.5l-262 -720l-33 -35q-37 -34 -41 -14l-116 516l-191 -469l-32 -35q-37 -35 -41 -11l-140 720q-2 9 8 25t25.5 28t28 14.5t14.5 -6.5l122 -630l189 465q10 24 28 36t31 11h14l114 -507l210 576q5 14 19.5 29.5t29 22.5z" />
    <glyph glyph-name="X" unicode="X" horiz-adv-x="644" 
d="M130 738q15 14 28.5 18.5t18.5 -2.5l192 -329l229 298q12 16 27.5 26t24 9t9.5 -6q4 -12 -13 -34l-255 -332l206 -352q4 -7 -4 -22.5t-23 -29.5t-28.5 -18.5t-18.5 2.5l-196 337l-235 -305q-12 -16 -27.5 -26.5t-24 -9.5t-9.5 6q-4 12 13 34l260 340l-201 344
q-4 7 4 22.5t23 29.5z" />
    <glyph glyph-name="Y" unicode="Y" horiz-adv-x="539" 
d="M68 739.5q15 13.5 28.5 17.5t17.5 -4l194 -420l237 381q10 15 25.5 28t28 15.5t14.5 -7t-8 -24.5l-279 -449l-22 -251q-1 -11 -13 -27t-25 -25t-21 -11q-18 -5 -17 11l23 256l-211 457q-4 8 4.5 23.5t23.5 29z" />
    <glyph glyph-name="Z" unicode="Z" horiz-adv-x="627" 
d="M134 701q3 9 12 22t25 24t27 11h438q15 0 9 -19q-3 -9 -11 -20l-504 -681h454q15 0 8 -19q-8 -25 -30.5 -41t-33.5 -16h-480q-18 0 -6 25q3 7 8 14l504 681h-412q-14 0 -8 19z" />
    <glyph glyph-name="bracketleft" unicode="[" horiz-adv-x="363" 
d="M335 739q-3 -9 -12 -21.5t-25 -24t-27 -11.5h-86l-57 -644h163q15 0 8 -19q-8 -25 -30.5 -41t-33.5 -16h-174q-12 0 -10 12l64 720q2 25 18.5 41t31.5 20l16 3h146q14 0 8 -19z" />
    <glyph glyph-name="backslash" unicode="\" horiz-adv-x="314" 
d="M112.5 742.5q15.5 12.5 28 15t14.5 -6.5l142 -721q2 -9 -8 -24.5t-25.5 -28t-28 -15t-14.5 7.5l-142 720q-2 9 8 24.5t25.5 28z" />
    <glyph glyph-name="bracketright" unicode="]" horiz-adv-x="338" 
d="M118 701q3 9 12 22t25 24t27 11h152q11 0 10 -12l-60 -720q-9 -40 -39 -57q-12 -7 -27 -7h-154q-15 0 -8 19q8 25 30.5 41t33.5 16h93l54 644h-141q-14 0 -8 19z" />
    <glyph glyph-name="asciicircum" unicode="^" horiz-adv-x="488" 
d="M78 20.5q-14 -5.5 -19.5 1t0.5 20.5l202 447l30 34q36 36 43 11l122 -453q2 -9 -7.5 -24.5t-25 -28t-28 -15.5t-15.5 6l-102 381l-149 -330q-7 -14 -22 -29t-29 -20.5z" />
    <glyph glyph-name="underscore" unicode="_" horiz-adv-x="404" 
d="M10 -19q3 9 12 22t25 24t27 11h301q15 0 8 -19q-8 -25 -30.5 -41t-33.5 -16h-301q-14 0 -8 19z" />
    <glyph glyph-name="grave" unicode="`" horiz-adv-x="244" 
d="M109 751q15 14 29 19.5t19 -1.5l109 -150q5 -7 -2 -21.5t-22 -28.5t-29 -19.5t-19 1.5l-109 150q-5 7 2 21.5t22 28.5z" />
    <glyph glyph-name="a" unicode="a" horiz-adv-x="516" 
d="M509 60.5q2 -9.5 -8.5 -25.5t-35.5 -36t-53 -31q-55 -22 -68 20q-6 17 -5 63q-52 -63 -105 -82t-99 -6q-143 40 -86 330q19 96 67 158q82 106 201 90q50 -6 78 -37q23 31 48 37q8 2 12.5 -1.5t3.5 -11.5q-58 -423 -41 -476q8 -24 26 -15q8 4 23 16.5t27.5 14.5t14.5 -7.5
zM344 151q7 80 10 102q26 196 -97 212q-30 4 -52 -1q-30 -6 -41 -19q-25 -32 -41 -114t-14 -145q6 -124 88 -147q63 -18 97 23q25 30 50 89z" />
    <glyph glyph-name="b" unicode="b" horiz-adv-x="510" 
d="M260 -38q-85 0 -131 58q-3 -10 -13.5 -23.5t-23.5 -22.5t-21 -11q-18 -5 -17 11l70 799q1 11 13 27t25 25t21 11q18 5 17 -11l-29 -333q54 50 119 49q127 -1 174 -76t16 -210.5t-79 -203.5q-32 -44 -70.5 -66.5t-70.5 -22.5zM150 251v-2q17 -211 166 -211q21 0 24.5 3.5
t5.5 6.5l2 3q31 43 55 147q30 134 -11.5 200t-157.5 67q-29 0 -43 -9q-13 -16 -23 -64.5t-11 -71t-4 -28.5z" />
    <glyph glyph-name="c" unicode="c" horiz-adv-x="519" 
d="M438.5 113q15.5 10 25 8t7.5 -14q-7 -39 -30 -69.5t-47.5 -47.5t-46.5 -23q-50 -12 -85 -5q-232 23 -189 269q38 213 164 285q49 28 95 30q161 6 167 -153q0 -10 -10.5 -26t-23.5 -25.5t-22 -12.5q-19 -7 -20 8q-6 138 -145 132q-44 -2 -62 -18q-44 -41 -65.5 -161.5
t21 -180.5t148.5 -71q45 -4 71 5q3 7 4.5 18t14.5 26.5t28.5 25.5z" />
    <glyph glyph-name="d" unicode="d" horiz-adv-x="491" 
d="M442 801.5q12 15.5 25 24.5t21 11q18 5 17 -11l-68 -800q-1 -11 -13 -27t-25 -25t-21 -11q-18 -5 -17 11l7 79q-51 -63 -105 -83t-100 -7q-142 41 -86 330q19 96 67 158q83 106 201 90q37 -5 62 -22l22 255q1 12 13 27.5zM393 347q-13 107 -108 118q-29 3 -51 -1
q-32 -6 -42 -19q-25 -33 -39 -106q-52 -266 72 -300q63 -18 97 23q26 31 52 93q1 3 3 6z" />
    <glyph glyph-name="e" unicode="e" horiz-adv-x="526" 
d="M143 234q-4 -185 161 -196q35 -3 63 2q36 6 40 14q8 15 23.5 29t28.5 18.5t18 -3.5q7 -13 -19 -47t-53.5 -53.5t-53.5 -26.5q-58 -16 -105 -9q-197 13 -177 249q6 73 22 126.5t51 100.5q80 108 199 103q189 -7 158 -251q-9 -40 -40 -57q-12 -7 -26 -6zM150 309q7 2 11 2
l266 -6q-3 155 -143 160q-68 3 -91 -29q-30 -40 -43 -127z" />
    <glyph glyph-name="f" unicode="f" horiz-adv-x="400" 
d="M396 611.5q-15 -14.5 -29.5 -20t-19.5 0.5q-38 45 -73 66.5t-54 17.5q-9 -30 -13 -100l-7 -75h114q15 0 8 -19q-8 -25 -30.5 -41t-33.5 -16h-65l-38 -399q-1 -11 -13 -27.5t-25 -25t-21 -10.5q-18 -5 -17 11l43 451h-88q-15 0 -8 19q8 25 30.5 41t33.5 16h39l2 23
q0 3 1 18t1 18t1 15.5t1.5 16t2 13.5t2.5 14l3 12t5 13q24 53 63 79.5t68 29.5q58 5 140 -91q5 -6 -1.5 -21t-21.5 -29.5z" />
    <glyph glyph-name="g" unicode="g" horiz-adv-x="508" 
d="M458 509q20 25 35 29q25 7 24 -8q-20 -325 -30 -395q-8 -83 -26 -143t-58.5 -115.5t-94.5 -82.5t-109 -26q-113 1 -155 70q-4 7 3.5 22.5t22.5 29t29 18.5t19 -2q36 -61 137 -62q72 -1 99 38q38 53 54 171q-52 -64 -105.5 -83.5t-99.5 -6.5q-143 40 -86 330q19 96 67 158
q82 106 201 90q45 -6 73 -32zM419 165q7 77 6 77q-4 3 -3 11q26 196 -97 212q-30 4 -52 -1q-31 -6 -41 -19q-25 -32 -41 -114t-14 -145q6 -124 88 -147q63 -18 97 23q26 31 52 93q2 5 5 10z" />
    <glyph glyph-name="h" unicode="h" horiz-adv-x="495" 
d="M134 806q12 16 25 24.5t21 10.5q18 5 17 -11l-34 -375q31 37 72.5 61.5t83.5 24.5q171 2 146 -235l-24 -280q-1 -11 -13 -27t-25 -25t-21 -11q-18 -5 -17 11l24 280q23 212 -124 211q-29 0 -43 -8q-35 -20 -65 -110q-2 -6 -6 -13l-28 -308q-1 -11 -13 -27.5t-25 -25
t-21 -10.5q-18 -5 -17 11l74 804q1 12 13 28z" />
    <glyph glyph-name="i" unicode="i" 
d="M121 505q12 16 25 24.5t22 10.5q18 4 16 -11l-53 -504q-1 -12 -13 -27.5t-25 -24t-22 -10.5q-18 -4 -16 12l53 503q1 11 13 27zM125.5 677q11.5 16 24.5 25t22 11q18 5 17 -11l-5 -70q-1 -11 -12.5 -27t-24.5 -25t-22 -11q-18 -5 -17 11l5 70q1 11 12.5 27z" />
    <glyph glyph-name="j" unicode="j" horiz-adv-x="326" 
d="M46.5 -68.5q14.5 14.5 29 21t20.5 0.5q48 -46 83 -50q8 32 13 87l52 542q1 12 13 27.5t25 24.5t21 11q18 5 17 -12l-52 -541q0 -5 -2 -31.5t-3 -34t-5.5 -28.5t-10.5 -32q-35 -64 -88 -85q-22 -8 -37 -8t-35 11q-25 14 -61 49q-6 6 0 20t20.5 28.5zM265.5 706
q11.5 16 24.5 25t22 11q18 5 17 -11l-5 -70q-1 -11 -12.5 -27t-24.5 -25t-22 -11q-18 -5 -17 11l5 70q1 11 12.5 27z" />
    <glyph glyph-name="k" unicode="k" horiz-adv-x="495" 
d="M138 806q12 16 25 24.5t21 10.5q18 5 17 -11l-51 -553l286 247q15 13 28 16.5t16 -5t-5.5 -24t-24.5 -28.5l-187 -162l206 -287q5 -7 -2 -21.5t-22 -28.5t-29 -19.5t-19 1.5l-208 290l-1 1l-43 -38l-18 -193q-1 -11 -13 -27.5t-25 -25t-21 -10.5q-18 -5 -17 11l74 804
q1 12 13 28z" />
    <glyph glyph-name="l" unicode="l" horiz-adv-x="185" 
d="M138 806q12 16 25 24.5t21 10.5q18 5 17 -11l-74 -804q-1 -11 -13 -27.5t-25 -25t-21 -10.5q-18 -5 -17 11l74 804q1 12 13 28z" />
    <glyph glyph-name="m" unicode="m" horiz-adv-x="771" 
d="M121 505q12 16 25 24.5t22 10.5q18 4 16 -11l-7 -66q28 32 68 55t82 23q98 1 122 -98q35 46 80 72t87 26q141 2 116 -235l-24 -280q-1 -11 -13 -27t-25 -25t-21 -11q-18 -5 -17 11l24 280q23 212 -94 211q-29 0 -43 -8q-34 -20 -63 -105q-1 -22 -3 -46l-24 -280
q-1 -11 -13 -27t-25 -25t-21 -11q-18 -5 -17 11l24 280q2 23 2 35t1 16q3 162 -107 160q-29 0 -43 -8q-35 -20 -65 -110v-3l-34 -319q-1 -12 -13 -27.5t-25 -24t-22 -10.5q-18 -4 -16 12l53 503q1 11 13 27z" />
    <glyph glyph-name="n" unicode="n" horiz-adv-x="502" 
d="M121 505q12 16 25 24.5t22 10.5q18 4 16 -11l-7 -66q28 32 68 55t82 23q171 2 146 -235l-24 -280q-1 -11 -13 -27t-25 -25t-21 -11q-18 -5 -17 11l24 280q23 212 -124 211q-29 0 -43 -8q-35 -20 -65 -110v-3l-34 -319q-1 -12 -13 -27.5t-25 -24t-22 -10.5q-18 -4 -16 12
l53 503q1 11 13 27z" />
    <glyph glyph-name="o" unicode="o" horiz-adv-x="538" 
d="M360 541q184 -16 148 -301q-15 -114 -67 -183q-80 -106 -199 -95q-202 18 -171 260q9 69 26.5 121t52.5 97q85 112 210 101zM302 465q-76 7 -103 -29q-15 -19 -30 -62.5t-22 -101.5q-28 -218 153 -234q69 -6 91 23q11 15 23 49.5t18 79.5q34 261 -130 275z" />
    <glyph glyph-name="p" unicode="p" horiz-adv-x="526" 
d="M111 506.5q12 15.5 25 24.5t21 11q18 5 17 -11l-4 -46q60 57 142 56q248 -2 180 -302q-26 -114 -67 -171t-84 -81.5t-81 -24.5q-85 0 -131 58l-25 -288q-1 -11 -13 -27t-25 -25t-21 -11q-18 -5 -17 11l70 799q1 12 13 27.5zM150 252v-3q17 -211 166 -211q32 0 42 11
q35 36 62.5 158.5t-12.5 189.5t-152 68q-53 0 -65.5 -17t-23 -55.5t-11.5 -66t-3 -32.5z" />
    <glyph glyph-name="q" unicode="q" horiz-adv-x="481" 
d="M415 509q21 27 44 32q18 5 17 -11l-68 -800q-1 -11 -13 -27t-24.5 -25t-21.5 -11q-18 -5 -17 11l32 374q-52 -63 -105 -82.5t-99 -6.5q-143 40 -86 330q19 96 67 158q82 106 201 90q45 -5 73 -32zM380 245q-2 3 -1 8q26 196 -97 212q-30 4 -52 -1q-30 -6 -41 -19
q-25 -32 -41 -114t-14 -145q6 -124 88 -147q63 -18 97 23q26 31 52 93l2 4z" />
    <glyph glyph-name="r" unicode="r" horiz-adv-x="319" 
d="M121 505q12 16 25 24.5t22 10.5q18 4 16 -11l-5 -44q77 65 159 56q14 -2 7 -21q-10 -26 -33 -41t-32 -14q-51 6 -87 -21q-17 -13 -24 -61l-38 -358q-1 -12 -13 -27.5t-25 -24t-22 -10.5q-18 -4 -16 12l37 350q0 2 1 8l15 145q1 11 13 27z" />
    <glyph glyph-name="s" unicode="s" horiz-adv-x="511" 
d="M441.5 359.5q-15.5 -13.5 -28.5 -16.5t-16 5q-17 46 -54.5 78.5t-78.5 38.5t-64 -7q-20 -42 11 -89q27 -41 108 -73q55 -22 73 -32q80 -49 78 -126q-2 -61 -58 -117q-102 -101 -231 -38q-73 36 -120 111q-4 7 3.5 22t22.5 29t29 19t18 -2q54 -85 138 -115q54 -19 97 -5
q14 5 17 9q13 22 5 57q-14 64 -111 103q-4 2 -23 9q-54 21 -72 35q-91 66 -60 158q12 37 40 66q71 74 154 62q52 -7 93 -42.5t59 -86.5q3 -8 -5.5 -23.5t-24 -29z" />
    <glyph glyph-name="t" unicode="t" horiz-adv-x="370" 
d="M343 74.5q2 -9.5 -8 -25t-39 -39t-64 -38.5q-69 -28 -103 14q-32 37 -17 141l26 301h-76q-15 0 -8 19q8 25 30.5 41.5t33.5 16.5h27l15 171q1 11 13 27t25 25t21 11q18 5 17 -11l-19 -223h87q15 0 8 -20q-8 -25 -30.5 -41t-33.5 -16h-38l-22 -250v-2q-14 -90 13 -120
q25 -31 61 -15q17 8 35.5 23t31 17.5t14.5 -7z" />
    <glyph glyph-name="u" unicode="u" horiz-adv-x="509" 
d="M429 -2q-12 -16 -25 -24.5t-22 -10.5q-18 -4 -16 12l7 65q-28 -32 -68 -55t-82 -23q-171 -2 -146 236l24 279q1 11 13 27.5t25 25t21 10.5q18 5 17 -11l-24 -280q-23 -212 124 -211q29 0 43 8q35 20 65 110v3l34 319q1 12 13 27.5t25 24t22 10.5q18 4 16 -11l-53 -504
q-1 -11 -13 -27z" />
    <glyph glyph-name="v" unicode="v" horiz-adv-x="494" 
d="M101 525q15 13 28 15.5t16 -5.5l120 -428l161 381q6 14 20.5 29t29 21t20.5 0.5t0 -20.5l-212 -503q-15 -35 -50 -50q-20 -9 -23 4l-142 503q-2 9 7.5 24.5t24.5 28.5z" />
    <glyph glyph-name="w" unicode="w" horiz-adv-x="738" 
d="M404 414q32 23 38 5l86 -313l161 382q6 14 20.5 29t29 21t20.5 0.5t0 -20.5l-213 -505l-30 -35q-36 -36 -43 -11l-86 313l-111 -265q-7 -17 -21 -29q-33 -30 -47 -23q-5 2 -5 8l-123 501q-2 9 7.5 25t25 28.5t28 15t15.5 -6.5l103 -423l110 262q12 28 35 41z" />
    <glyph glyph-name="x" unicode="x" horiz-adv-x="516" 
d="M97 520.5q15 13.5 29 18.5t18 -2l151 -239l174 211q13 15 28.5 24.5t24.5 7.5t6.5 -15t-15.5 -28l-195 -237l143 -227q4 -7 -3 -22t-22 -29t-29 -19t-18 2l-136 215l-154 -186q-13 -15 -28.5 -25t-24.5 -7.5t-6.5 15t15.5 27.5l175 213l-158 251q-4 7 3 22.5t22 29z" />
    <glyph glyph-name="y" unicode="y" horiz-adv-x="528" 
d="M447.5 504q11.5 16 24.5 25t21 11q19 5 18 -10q-20 -325 -30 -395q-8 -83 -26 -143t-58.5 -115.5t-94.5 -82.5t-109 -26q-113 1 -155 70q-4 7 3.5 22.5t22.5 29t29 18.5t19 -2q36 -61 137 -62q72 -1 99 38q37 52 53 166q-98 -118 -204 -84q-140 44 -68 515
q2 12 14.5 27.5t25 24t21 10t12.5 -2t3 -10.5q-44 -301 -3 -421q20 -57 58 -69q62 -20 97 21q27 31 53 95q1 3 3 7q9 102 22 316q1 11 12.5 27z" />
    <glyph glyph-name="z" unicode="z" horiz-adv-x="530" 
d="M100 484q3 9 12 22t25 24t27 11h336q15 0 9 -19q-3 -9 -13 -21l-354 -463h330q15 0 8 -19q-8 -25 -30.5 -41t-33.5 -16h-358q-12 1 -10.5 13t14.5 27l354 463h-308q-14 0 -8 19z" />
    <glyph glyph-name="braceleft" unicode="{" horiz-adv-x="298" 
d="M132 326q28 -28 23 -42q-2 -8 -3 -177q-1 -68 36.5 -101t109.5 -24q16 2 11 -17q-5 -22 -28.5 -40t-34.5 -19q-172 -13 -170 147q3 195 4 233l-45 12q-8 2 -6 16t24 40t43 34l28 209q0 3 1 3q11 52 39 86q55 66 110 70q47 5 97 -10q9 -3 6 -16t-15.5 -28.5t-28.5 -24.5
t-24 -7q-65 19 -99 5q-9 -17 -10 -29l-36 -267z" />
    <glyph glyph-name="bar" unicode="|" horiz-adv-x="193" 
d="M140 722q12 16 25 24.5t21 10.5q18 5 17 -11l-80 -814q-1 -12 -13 -28t-25 -24.5t-21 -10.5q-18 -5 -17 11l80 815q1 11 13 27z" />
    <glyph glyph-name="braceright" unicode="}" horiz-adv-x="298" 
d="M218 299l-25 57l-2 269q-1 12 -7 30q-32 18 -98 8q-9 -1 -23.5 10t-25 28t-12 30.5t7.5 14.5q51 9 97 -2q55 -11 101 -84q23 -38 28 -90v-3l2 -210q20 -11 38.5 -39.5t19 -42.5t-7.5 -15l-47 -7q-3 -38 -25 -232q-18 -158 -187 -124q-11 2 -32 22.5t-23 43.5q-2 20 13 16
q70 -18 111 10t49 96q20 168 19 176q-2 14 29 38z" />
    <glyph glyph-name="asciitilde" unicode="~" horiz-adv-x="447" 
d="M444.5 467.5q15.5 9.5 25.5 8t7 -17.5t-6 -29q-10 -37 -35.5 -64.5t-44 -39t-33.5 -16.5t-34 -3t-31.5 6t-32.5 15q-26 15 -70.5 46.5t-76.5 34.5l-13 -35q-6 -14 -20.5 -29t-29 -21.5t-21 -1.5t-1.5 20l22 56q9 23 35 48.5t44 32t31.5 7t25 -1.5t24.5 -9q22 -10 54 -33
q84 -60 131 -55q4 12 6.5 26t15 30t28 25.5z" />
    <glyph glyph-name="uni00A0" unicode="&#xa0;" horiz-adv-x="230" 
 />
    <glyph glyph-name="exclamdown" unicode="&#xa1;" horiz-adv-x="198" 
d="M141 709q12 16 25 24t21 10q18 4 16 -12l-10 -78q-2 -12 -14 -28t-25 -24t-21 -10q-18 -4 -16 12l10 78q2 12 14 28zM120 541.5q12 15.5 25 24.5t21 11q18 5 17 -11l-48 -540q-1 -11 -13 -27t-25 -25t-21 -11q-18 -5 -17 11l48 540q1 12 13 27.5z" />
    <glyph glyph-name="cent" unicode="&#xa2;" horiz-adv-x="501" 
d="M286 595q12 16 25 25t21 11q18 5 17 -12l-64 -690q-1 -11 -13 -28q-12 -16 -25 -24q-13 -9 -21 -11q-18 -5 -17 11l64 691q1 11 13 27zM438.5 113q15.5 10 25 8t7.5 -14q-7 -39 -30 -69.5t-47.5 -47.5t-46.5 -23q-50 -12 -85 -5q-232 23 -189 269q38 213 164 285
q49 28 95 30q161 6 167 -153q0 -10 -10.5 -26t-23.5 -25.5t-22 -12.5q-19 -7 -20 8q-6 138 -145 132q-44 -2 -62 -18q-44 -41 -65.5 -161.5t21 -180.5t148.5 -71q45 -4 71 5q3 7 4.5 18t14.5 26.5t28.5 25.5z" />
    <glyph glyph-name="sterling" unicode="&#xa3;" horiz-adv-x="565" 
d="M493 19.5q-21 -19.5 -37 -21.5l-342 -36q-8 -1 -11.5 5t0.5 15q41 112 51 321l-100 -1q-15 0 -10 19q8 25 31 41t33 16l48 1q0 13 1 26q1 92 15 154q20 94 85 152q52 47 111 47q137 2 191 -169q3 -9 -6.5 -24.5t-25 -28.5t-28.5 -16t-16 6q-49 158 -169 156q-26 0 -38 -8
q-18 -21 -30 -89.5t-12.5 -117.5t-2.5 -87l221 2q15 0 10 -19q-8 -25 -31 -41t-33 -16l-171 -2q-12 -162 -44 -264l323 34q16 2 12 -16.5t-25 -38z" />
    <glyph glyph-name="currency" unicode="&#xa4;" horiz-adv-x="495" 
d="M171 406q-10 -14 -27 -20t-22 -1l-84 83q-6 6 0 20t20 30q14 14 30 20q15 6 20 1l84 -84l-13 -26q-5 -20 -8 -23zM378 405q-14 9 -11 15q8 14 23 28l81 74q15 14 29 18t18 -3t-4 -22q-7 -15 -23 -30l-81 -73q-33 -33 -29 -18q2 8 -3 11zM376 193q6 23 23 31t23 2l77 -75
q6 -5 0 -19q-7 -14 -21 -30q-14 -14 -29 -21t-20 0l-77 75q-12 11 0 20q24 16 24 17zM165 192q19 -2 14 -8q-19 -27 -21 -29l-72 -70q-16 -15 -30 -21t-20 2q-6 6 5 23q10 17 19 26l72 70q30 26 29 20q-2 -12 4 -13zM326 502q154 -11 124 -204q-13 -77 -56 -124
q-68 -72 -168 -64q-170 12 -144 176q8 47 22.5 82t44.5 66q71 75 177 68zM277 450q-64 5 -87 -19q-13 -13 -25.5 -42.5t-18.5 -68.5q-23 -148 129 -159q58 -4 77 16q9 10 19 33.5t15 53.5q29 177 -109 186z" />
    <glyph glyph-name="yen" unicode="&#xa5;" horiz-adv-x="630" 
d="M89 236q3 9 13 22q9 13 25 24t26 11l308 2q15 0 10 -19q-8 -25 -31 -41t-33 -16l-308 -2q-16 0 -10 19zM82 140q3 9 12 22t25 24t27 11l306 -4q15 0 8 -19q-8 -25 -31 -41t-33 -16l-306 4q-14 0 -8 19zM68 739.5q15 13.5 28.5 17.5t17.5 -4l194 -420l237 381
q10 15 25.5 28t28 15.5t14.5 -7t-8 -24.5l-279 -449l-22 -251q-1 -11 -13 -27t-25 -25t-21 -11q-18 -5 -17 11l23 256l-211 457q-4 8 4.5 23.5t23.5 29z" />
    <glyph glyph-name="brokenbar" unicode="&#xa6;" horiz-adv-x="193" 
d="M132 722q12 16 25 24.5t21 10.5q18 5 17 -11l-28 -313q-1 -11 -13 -27t-25 -25t-21 -11q-18 -5 -17 11l28 313q1 12 13 28zM90 220q12 16 25 24.5t21 10.5q18 4 17 -11l-34 -336q-1 -12 -13 -28t-25 -24.5t-21 -10.5q-18 -4 -17 11l34 336q1 12 13 28z" />
    <glyph glyph-name="section" unicode="&#xa7;" horiz-adv-x="466" 
d="M164 443l-25 13q-3 1 -10 17t-12 36q-12 49 21 101q51 81 164.5 100.5t160.5 -83.5q4 -8 -4.5 -23.5t-23.5 -29t-28.5 -17.5t-17.5 4q-41 90 -135 73q-38 -6 -59 -18q-11 -32 13 -87l215 -110q2 -1 4 -4q48 -87 -31 -177l29 -13q4 -2 5 -6q8 -36 9 -61q4 -60 -33 -113
q-60 -83 -167 -83q-168 -2 -183 135q-1 10 9.5 25.5t23.5 25.5t22 14q20 7 21 -7q12 -119 161 -117q39 0 61 10q15 35 1 105l-244 112q-3 1 -4 4q-20 40 5 97q17 37 52 77zM357 256q26 35 -3 90l-153 79q-15 -17 -24 -36.5t3 -50.5z" />
    <glyph glyph-name="dieresis" unicode="&#xa8;" horiz-adv-x="399" 
d="M114 650q-1 22 13 37t33 15t33 -15t14 -37t-14 -37t-33 -15t-33 15t-13 37zM272 646q-1 22 13 37t33 15t33 -15t14 -37t-14 -37t-33 -15t-33 15t-13 37z" />
    <glyph glyph-name="copyright" unicode="&#xa9;" horiz-adv-x="789" 
d="M594 423.5q-16 9.5 -27.5 26t-11.5 29.5q0 19 -5 36q-5 7 -11 12q-16 8 -35 13q-28 2 -55 -2q-61 -25 -105 -71q-34 -53 -53 -111q-9 -41 -10 -82q5 -32 17 -62q14 -15 32 -28q34 -13 72 -15q47 6 89 26q37 29 59 67q5 9 20 5.5t30 -16.5t22.5 -29.5t2.5 -25.5
q-25 -43 -67 -74l-2 -2q-48 -24 -103 -30h-4q-55 3 -106 24q-6 2 -12 5q-54 35 -91 85q-5 6 -8 13q-23 49 -29 100q-1 2 -1 4q1 47 11 92q1 1 1 2q20 63 56 119l2 2q48 52 117 79q1 0 3 1q35 6 71 3q3 -1 5 -1q39 -9 75 -29q5 -4 11 -8q37 -30 61 -69q4 -6 6 -11
q13 -35 13 -70q0 -13 -12 -15t-28 7.5zM539 640q-268 85 -381 -224q-27 -77 -29.5 -138.5t12 -95t39.5 -53.5q46 -37 137 -56q256 -57 373 208q33 75 37.5 136t-11 97.5t-45.5 61.5q-47 37 -132 64zM513 716q108 -35 179 -92q68 -56 95.5 -124t20 -135.5t-41.5 -145.5
q-127 -288 -415 -224q-116 25 -189 83q-50 39 -77.5 85.5t-34 98t1.5 103.5t30 111q122 337 431 240z" />
    <glyph glyph-name="ordfeminine" unicode="&#xaa;" horiz-adv-x="439" 
d="M102.5 274q-12.5 -2 -14.5 7.5t8 25.5q38 60 92 87.5t110 30.5q125 8 107 -185l-20 -214q-1 -11 -13 -27.5t-25 -25t-21 -10.5q-18 -5 -17 11l5 55q-90 -79 -165 -67q-113 18 -77 139q10 33 36 65.5t59 52.5q61 37 164 27q-5 108 -85 103q-72 -4 -90 -32
q-10 -15 -25.5 -28t-28 -15zM320 91l7 72q-132 18 -176 -9q-3 -5 -5 -13q-27 -89 63 -103q35 -5 59.5 8.5t51.5 44.5z" />
    <glyph glyph-name="guillemotleft" unicode="&#xab;" horiz-adv-x="439" 
d="M489 495q6 -2 7 -9.5t-9.5 -23.5t-25.5 -28l-144 -112l142 -139q6 -6 0 -20t-20.5 -28.5t-29 -21t-20.5 -0.5l-162 158q-20 19 32 59l196 152q21 16 34 13zM310 475.5q1 -8.5 -9.5 -24.5t-26.5 -28l-146 -111l145 -136q6 -6 0 -20.5t-20.5 -29t-29 -21t-20.5 -1.5
l-166 156q-16 21 19 50l214 163q22 16 30.5 13.5t9.5 -11z" />
    <glyph glyph-name="logicalnot" unicode="&#xac;" horiz-adv-x="475" 
d="M43 318q3 9 12 22t25 24t27 11h344q11 0 10 -12l-15 -183q-1 -11 -13 -27t-24.5 -25t-21.5 -11q-18 -5 -17 11l14 171h-333q-14 0 -8 19z" />
    <glyph glyph-name="registered" unicode="&#xae;" horiz-adv-x="789" 
d="M454 419.5q15 -4.5 30 -19t21 -29.5l75 -205q6 -16 -1 -23.5t-22 -3t-30 19t-21 29.5l-75 205q-6 16 1 23.5t22 3zM355 334l-17 -178q-1 -12 -13.5 -13t-28.5 9.5t-27 27t-9 28.5l36 388q1 13 14 13q73 9 134.5 1t105.5 -40q43 -30 56 -67t6 -69q-19 -91 -179 -98
q-56 -2 -78 -2zM362 415q10 0 21 1q136 5 151 74q3 15 1 26q-18 9 -61 14t-101 1zM539 640q-268 85 -381 -224q-27 -77 -29.5 -138.5t12 -95t39.5 -53.5q46 -37 137 -56q256 -57 373 208q33 75 37.5 136t-11 97.5t-45.5 61.5q-47 37 -132 64zM513 716q108 -35 179 -92
q68 -56 95.5 -124t20 -135.5t-41.5 -145.5q-127 -288 -415 -224q-116 25 -189 83q-50 39 -77.5 85.5t-34 98t1.5 103.5t30 111q122 337 431 240z" />
    <glyph glyph-name="macron" unicode="&#xaf;" horiz-adv-x="336" 
d="M82 625q3 9 12 22t25 24t27 11h218q15 0 8 -19q-8 -25 -30.5 -41t-33.5 -16h-218q-14 0 -8 19z" />
    <glyph glyph-name="degree" unicode="&#xb0;" horiz-adv-x="224" 
d="M190 718q100 3 97 -109q-1 -42 -23 -71.5t-42 -45t-40 -20.5q-31 -8 -63 -7q-96 4 -88 103q3 42 27 76q50 71 132 74zM136 642q-15 -1 -26 -4q-2 -8 -3 -18q-6 -75 68 -79q20 -1 35 2q1 6 1 12q2 90 -75 87z" />
    <glyph glyph-name="plusminus" unicode="&#xb1;" horiz-adv-x="399" 
d="M256.5 495q3.5 -2 3.5 -6l-11 -136h130q13 0 -1 -19t-27 -19h-105l-9 -104q-1 -14 -20 -27q-11 -7 -14.5 -5t-3.5 6l11 130h-134q-13 0 1 19t27 19h109l9 110q1 14 16 24t18.5 8zM58 130q14 19 27 19l279 2q13 0 -1 -19t-27 -19l-279 -2q-13 0 1 19z" />
    <glyph glyph-name="twosuperior" unicode="&#xb2;" horiz-adv-x="571" 
d="M235 577q-7 -4 -11 -1.5t5 25.5t29 49q47 60 104 51q169 -26 19 -216l-8 -8l-98 -84l154 5q13 0 0 -19t-26 -19l-180 -6q-24 0 10 29l129 111q119 146 -30 169q-33 5 -47.5 -13.5t-23 -41t-26.5 -31.5z" />
    <glyph glyph-name="threesuperior" unicode="&#xb3;" horiz-adv-x="358" 
d="M89 413q-3 11 11 22q24 20 27 10q18 -72 94 -74q29 -1 46.5 8.5t27 41t-18.5 53t-97 26.5q-1 0 6.5 9.5t14.5 19.5l7 9q40 -3 62 10q12 7 17 34q16 69 -62 78q-37 4 -52 -11q-4 -4 -11 -19.5t-25 -22.5q-7 -3 -9.5 0.5t5.5 19.5t28 36q40 40 94 35q89 -10 70 -93
q-10 -48 -48 -78q75 -23 55 -87.5t-73 -92.5q-29 -15 -65 -14q-85 2 -104 80z" />
    <glyph glyph-name="acute" unicode="&#xb4;" horiz-adv-x="229" 
d="M251.5 757.5q12.5 2.5 15 -6.5t-7.5 -25q-47 -77 -103 -128q-15 -14 -29 -18.5t-18 3t4 23t31 36.5t55 72q9 15 24.5 28t28 15.5z" />
    <glyph glyph-name="mu" unicode="&#xb5;" horiz-adv-x="519" 
d="M429 -2q-12 -16 -25 -24.5t-22 -10.5q-18 -4 -16 12l7 65q-28 -32 -68 -55t-91 -23.5t-87 28.5l-15 -150q-1 -12 -13 -28t-24.5 -24.5t-20.5 -10.5q-18 -5 -17 11l45 466l19 223q1 11 13 27.5t25 25t21 10.5q18 5 17 -11l-24 -280q-23 -212 124 -211q29 0 43 8
q35 20 65 110v3l34 319q1 12 13 27.5t25 24t22 10.5q18 4 16 -11l-53 -504q-1 -11 -13 -27z" />
    <glyph glyph-name="paragraph" unicode="&#xb6;" horiz-adv-x="482" 
d="M527 720l-16 -92h-73l-57 -628h-64l34 386h-58l-40 -386h-78l40 378l-148 127q31 227 281 215h179z" />
    <glyph glyph-name="periodcentered" unicode="&#xb7;" horiz-adv-x="173" 
d="M93 356q12 16 25 24.5t21 10.5q18 5 17 -11l-10 -102q-1 -12 -13 -28t-25 -24.5t-21 -10.5q-18 -5 -17 11l10 102q1 12 13 28z" />
    <glyph glyph-name="cedilla" unicode="&#xb8;" 
d="M107.5 22q15.5 13 28 15.5t15.5 -6.5q31 -124 -69 -223q-15 -14 -29.5 -20t-20 0t1 20.5t18.5 26.5t19 27q22 48 4 107q-2 9 7.5 24.5t25 28.5z" />
    <glyph glyph-name="onesuperior" unicode="&#xb9;" horiz-adv-x="254" 
d="M85 602q4 13 17.5 28.5t28.5 23.5l84 46q14 7 22 5t7 -11l-30 -308q-1 -12 -13 -28t-25 -24.5t-21 -10.5q-18 -5 -17 11l28 285l-53 -29q-15 -8 -23.5 -4.5t-4.5 16.5z" />
    <glyph glyph-name="ordmasculine" unicode="&#xba;" horiz-adv-x="464" 
d="M311 426q164 -8 122 -224q-20 -102 -67 -163q-74 -94 -168 -77q-175 31 -134 233q15 78 56 133q75 103 191 98zM255 350q-64 3 -84 -24t-31 -85q-36 -176 118 -203q43 -6 56 4q11 10 23.5 42t20.5 71q37 189 -103 195z" />
    <glyph glyph-name="guillemotright" unicode="&#xbb;" horiz-adv-x="439" 
d="M49 462.5q14 14.5 29 21t21 1.5l176 -156q3 -2 6 -5.5t-4.5 -19.5t-34.5 -36l-200 -152q-27 -21 -37 -10q-9 9 4 28.5t29 31.5l146 110l-155 137q-6 5 0 20t20 29.5zM233.5 466.5q14.5 14.5 29 21t20.5 1.5l174 -162q27 -16 -34 -62l-198 -146q-22 -16 -30.5 -12.5
t-8.5 12t11 24.5t26 28l142 104l-152 142q-6 6 0 20.5t20.5 29z" />
    <glyph glyph-name="onequarter" unicode="&#xbc;" horiz-adv-x="651" 
d="M106 602q4 13 18 28.5t29 23.5l70 38q13 7 21 5.5t7 -11.5l-18 -298q-1 -11 -12.5 -27t-24.5 -25t-21 -11q-19 -5 -18 11l17 275l-41 -21q-15 -8 -23 -4.5t-4 16.5zM717 712.5q7 -4.5 2 -18.5t-19 -29l-634 -676q-14 -15 -29 -22.5t-22 -3t-2 18.5t19 29l634 676
q14 15 29 22.5t22 3zM485 125l9 99l-85 -98zM633 105q-3 -9 -12 -22t-25 -24t-27 -11h-20l-2 -22q-1 -11 -13 -27.5t-25 -25t-21 -10.5q-18 -5 -17 11l7 75l-157 1q-6 0 -10 2t-1.5 13.5t19.5 30.5l188 216l26 26q35 29 32 -8l-19 -205l69 -1q14 0 8 -19z" />
    <glyph glyph-name="onehalf" unicode="&#xbd;" horiz-adv-x="632" 
d="M103 604q4 13 17.5 28.5t28.5 23.5l84 46q14 7 22 5t7 -11l-32 -316q-1 -12 -13 -28t-25 -24.5t-21 -10.5q-18 -4 -17 11l30 293l-53 -29q-15 -8 -23.5 -4.5t-4.5 16.5zM369 180.5q-15 -8.5 -23.5 -5.5t-5.5 15q15 59 49 101q70 85 162 61q29 -8 45 -22q33 -28 10 -87
q-25 -63 -99 -136l-59 -58l149 2q15 0 10 -19q-8 -25 -30.5 -41t-33.5 -16l-190 -3q-39 -1 6 46l121 118q47 48 57.5 75t-12.5 48q-13 11 -42.5 19t-51.5 -1q-9 -15 -14.5 -35.5t-19 -36.5t-28.5 -24.5zM686.5 708q6.5 -5 1 -19t-19.5 -29l-628 -662q-14 -15 -29 -22
t-21.5 -2t-1 19t19.5 29l628 662q14 15 29 22t21.5 2z" />
    <glyph glyph-name="threequarters" unicode="&#xbe;" horiz-adv-x="669" 
d="M686.5 708q6.5 -5 1 -19t-19.5 -29l-628 -662q-14 -15 -29 -22t-21.5 -2t-1 19t19.5 29l628 662q14 15 29 22t21.5 2zM485 125l9 99l-85 -98zM633 105q-3 -9 -12 -22t-25 -24t-27 -11h-20l-2 -22q-1 -11 -13 -27.5t-25 -25t-21 -10.5q-18 -5 -17 11l7 75l-157 1
q-6 0 -10 2t-1.5 13.5t19.5 30.5l188 216l26 26q35 29 32 -8l-19 -205l69 -1q14 0 8 -19zM129 590q-15 -7 -22 -2t0 23.5t22 39.5q53 71 127 67q99 -7 84 -96q-5 -30 -30 -60q50 -23 34 -107q-7 -39 -32 -70q-57 -75 -145 -67q-72 7 -89 72q-2 9 7.5 24.5t25 28.5t28 15.5
t15.5 -6.5q13 -53 71 -58q24 -2 40 2q2 6 3 13q15 81 -52 85q-17 1 -39 -3q1 0 24 38t24 38q23 4 40 10q8 60 -67 65q-11 1 -21 -1q-6 -14 -19.5 -29t-28.5 -22z" />
    <glyph glyph-name="questiondown" unicode="&#xbf;" horiz-adv-x="540" 
d="M440.188 165.347q13.6055 14.2559 27.7266 21.3701q14.1211 7.11523 23.3115 7.85059q19.5098 2.32324 15.3145 -13.2461q-18.124 -86.3271 -73.1182 -140.239q-67.8262 -66.2559 -146.718 -74.4199q-77.9023 -8.30176 -150.522 13.9609
q-134.602 33.9512 -94.4551 227.264q17.4316 81.375 64.2832 138.444q46.8525 57.0693 110.271 84.5605t130.585 31.2344l7.21973 44.4307q1.52246 10.8945 15.1279 25.1494q13.6045 14.2559 27.7256 21.3711t22.46 8.97949q19.6484 3.31348 17.4336 -12.5332
l-16.1006 -100.746q-3.18359 -22.7793 -21.8096 -36.8389q-18.626 -14.0586 -34.0361 -15.9443l-16.5391 -2.73828q-73.9824 5.28711 -117.22 -7.8584q-43.2373 -13.1445 -59.8721 -31.0156q-32.1396 -34.8906 -46.9199 -104.519q-36.249 -172.653 79.8115 -201.994
q56.3369 -15.9482 98.0518 -13.6982q68.1572 3.60449 83.3857 18.6436q9.30762 8.79688 20.6221 31.9551q11.3154 23.1582 17.8643 55.5654q2.5127 10.7568 16.1172 25.0117zM434.499 619.522q-14.0996 -14.1865 -27.7256 -21.3701q-13.626 -7.18457 -22.9551 -8.91016
q-19.5098 -2.32324 -16.4434 12.3945l15.5898 82.6416q2.5127 10.7559 16.1172 25.0117q13.6055 14.2549 27.2314 21.4395t22.9551 8.91016q19.5098 2.32324 16.4434 -12.3945l-15.5898 -82.6416q-1.52246 -10.8945 -15.623 -25.0811z" />
    <glyph glyph-name="Agrave" unicode="&#xc0;" horiz-adv-x="650" 
d="M304.685 960q16.2246 14 30.7061 19.5q14.4805 5.5 18.8691 -1.5l95.8799 -150q4.3877 -7 -3.87988 -21.5q-8.26855 -14.5 -24.4932 -28.5t-30.7051 -19.5q-14.4814 -5.5 -18.8691 1.5l-95.8809 150q-4.3877 7 3.88086 21.5t24.4922 28.5zM66.8955 -35.5
q-14.4814 -5.5 -19.4131 1t3.29297 20.5l392.974 720l33.0615 35q40.0605 35 42.874 10l87.0264 -720q1.21289 -9 -10.1865 -25t-27.9922 -28.5q-16.5938 -12.5 -29.3125 -15q-12.7178 -2.5 -13.9307 6.5l-26.9717 229h-3h-273l-101.093 -184q-8.3125 -15 -24.0801 -29.5
q-15.7686 -14.5 -30.249 -20zM488.965 274l-41.4375 338l-183.562 -338h225z" />
    <glyph glyph-name="Aacute" unicode="&#xc1;" horiz-adv-x="650" 
d="M587.754 966.5q12.7188 2.5 14.4307 -6.5q1.71289 -9 -9.68652 -25q-53.7344 -77 -114.195 -128q-16.2246 -14 -30.6182 -18.5t-17.7373 3t6.01172 23t34.1924 36.5t61.2979 72q10.3115 15 26.9482 28q16.6377 13 29.3564 15.5zM66.8955 -35.5q-14.4814 -5.5 -19.4131 1
t3.29297 20.5l392.974 720l33.0615 35q40.0605 35 42.874 10l87.0264 -720q1.21289 -9 -10.1865 -25t-27.9922 -28.5q-16.5938 -12.5 -29.3125 -15q-12.7178 -2.5 -13.9307 6.5l-26.9717 229h-3h-273l-101.093 -184q-8.3125 -15 -24.0801 -29.5q-15.7686 -14.5 -30.249 -20z
M488.965 274l-41.4375 338l-183.562 -338h225z" />
    <glyph glyph-name="Acircumflex" unicode="&#xc2;" horiz-adv-x="650" 
d="M354.396 819.5q-17.0059 -11.5 -26.0059 -11.5t-11.5625 5q-4.03809 11 12.7988 32l98.8457 124l24.2734 26q31.5361 29 42.7002 8l60.8916 -127q3.3877 -7 -5.96777 -22.5t-25.5801 -29.5t-30.6182 -18.5t-17.7812 2.5l-45.5156 97l-47.0732 -58
q-12.3994 -16 -29.4053 -27.5zM66.8955 -35.5q-14.4814 -5.5 -19.4131 1t3.29297 20.5l392.974 720l33.0615 35q40.0605 35 42.874 10l87.0264 -720q1.21289 -9 -10.1865 -25t-27.9922 -28.5q-16.5938 -12.5 -29.3125 -15q-12.7178 -2.5 -13.9307 6.5l-26.9717 229h-3h-273
l-101.093 -184q-8.3125 -15 -24.0801 -29.5q-15.7686 -14.5 -30.249 -20zM488.965 274l-41.4375 338l-183.562 -338h225z" />
    <glyph glyph-name="Atilde" unicode="&#xc3;" horiz-adv-x="650" 
d="M456.399 897q24.7988 32 52.4111 39q18.4375 5 16.0381 -11q-0.0878906 -1 -0.981445 -5.5t-1.02441 -6q-0.131836 -1.5 -1.52539 -6t-2.1123 -7t-2.6123 -7t-4.24316 -8.5l-4.69922 -8q-17.4492 -28 -39.2617 -43q-21.8115 -15 -30.6172 -18.5
q-8.80664 -3.5 -20.8066 -3.5q-16.9121 1 -23.5625 5l-38.0762 22l-39.25 20q-23.7988 -32 -50.5869 -41q-20.6123 -7 -20.3877 7l0.525391 6q-0.475586 6 -0.712891 9q-0.238281 3 0.917969 10.5t3.6377 13q2.48047 5.5 6.72363 14q4.24414 8.5 9.85645 15.5
q25.624 30 60.1104 47q16.7002 8 28.0244 6q11.3252 -2 12.8252 -2t2.41309 -1l58.376 -30zM66.8955 -35.5q-14.4814 -5.5 -19.4131 1t3.29297 20.5l392.974 720l33.0615 35q40.0605 35 42.874 10l87.0264 -720q1.21289 -9 -10.1865 -25t-27.9922 -28.5
q-16.5938 -12.5 -29.3125 -15q-12.7178 -2.5 -13.9307 6.5l-26.9717 229h-3h-273l-101.093 -184q-8.3125 -15 -24.0801 -29.5q-15.7686 -14.5 -30.249 -20zM488.965 274l-41.4375 338l-183.562 -338h225z" />
    <glyph glyph-name="Adieresis" unicode="&#xc4;" horiz-adv-x="650" 
d="M295.852 849q0.923828 22 16.2354 37q15.3125 15 34.3125 15t31.6875 -15q12.6885 -15 10.7646 -37q-1.9248 -22 -17.2363 -37q-15.3125 -15 -34.3125 -15t-31.6875 15q-12.6885 15 -9.76367 37zM453.501 845q0.924805 22 16.2363 37q15.3125 15 34.3125 15t31.6875 -15
q12.6885 -15 10.7637 -37q-1.92383 -22 -17.2354 -37q-15.3125 -15 -34.3125 -15t-31.6875 15q-12.6885 15 -9.76465 37zM66.8955 -35.5q-14.4814 -5.5 -19.4131 1t3.29297 20.5l392.974 720l33.0615 35q40.0605 35 42.874 10l87.0264 -720q1.21289 -9 -10.1865 -25
t-27.9922 -28.5q-16.5938 -12.5 -29.3125 -15q-12.7178 -2.5 -13.9307 6.5l-26.9717 229h-3h-273l-101.093 -184q-8.3125 -15 -24.0801 -29.5q-15.7686 -14.5 -30.249 -20zM488.965 274l-41.4375 338l-183.562 -338h225z" />
    <glyph glyph-name="Aring" unicode="&#xc5;" horiz-adv-x="650" 
d="M464.081 994q86.6504 -4 81.3037 -88q-3.41113 -39 -13.3789 -61.5t-25.6299 -41.5q-53.6855 -65 -119.335 -61q-86.4756 6 -78.5547 108q3.11133 47 33.3477 84q52.5977 64 122.247 60zM459.688 818q27.0088 103 -69.2529 100q-0.525391 -6 -1.0498 -12
q-6.25977 -83 62.3027 -88h8zM66.8955 -35.5q-14.4814 -5.5 -19.4131 1t3.29297 20.5l392.974 720l33.0615 35q40.0605 35 42.874 10l87.0264 -720q1.21289 -9 -10.1865 -25t-27.9922 -28.5q-16.5938 -12.5 -29.3125 -15q-12.7178 -2.5 -13.9307 6.5l-26.9717 229h-3h-273
l-101.093 -184q-8.3125 -15 -24.0801 -29.5q-15.7686 -14.5 -30.249 -20zM488.965 274l-41.4375 338l-183.562 -338h225z" />
    <glyph glyph-name="AE" unicode="&#xc6;" horiz-adv-x="941" 
d="M29 -27q-16 -11 -25 -11t-11 5q-5 11 11 33l518 720q11 16 27 27t25 11t11 -5q5 -11 -11 -33l-335 -466l297 -4q15 0 8 -19q-8 -25 -31 -41t-33 -16l-296 4l-128 -178q-11 -16 -27 -27zM981 758q10 0 10 -10q0 -11 -11.5 -27t-27.5 -27.5t-27 -11.5h-337l-24 -280h341
q15 0 8 -19q-8 -25 -30.5 -41t-33.5 -16h-292l-24 -288h385q15 0 8 -19q-8 -25 -30.5 -41t-33.5 -16h-393q-7 -1 -10.5 2.5t-2.5 11.5l61 718q1 11 13 28q22 29 46 35q5 1 7 1h4h394z" />
    <glyph glyph-name="Ccedilla" unicode="&#xc7;" horiz-adv-x="674" 
d="M323.424 22q16.6377 13 29.3564 15.5q12.7178 2.5 14.9307 -6.5q20.1553 -124 -88.5039 -223q-16.2246 -14 -31.249 -20q-15.0254 -6 -20 0q-4.97559 6 2.79297 20.5q7.76758 14.5 20.8174 26.5t21.3613 27q26.1982 48 13.3594 107q-1.21289 9 9.64258 24.5t27.4922 28.5
zM675.044 515q-13.3994 -16 -27.1436 -24.5q-13.7432 -8.5 -21.918 -10.5q-18.4375 -5 -16.0381 11q7.67383 42 -6.28418 82.5t-46.5957 67.5q-32.6387 27 -74.4395 35q-41.7998 8 -82.7617 -3q-127.975 -34 -195.429 -245q-50.9072 -159 -3.17773 -265
q26.752 -60 80.8223 -93.5q54.0693 -33.5 118.744 -31.5t107.124 30t63.4727 74q7.22461 14 23.0361 29q15.8125 15 30.8809 21.5t21.0869 1q6.01953 -5.5 -0.205078 -19.5q-20.6738 -42 -56.8037 -83.5q-36.1289 -41.5 -81.7529 -71.5q-80.7236 -54 -160.442 -56.5
q-79.7178 -2.5 -138.069 33.5t-86.8418 99q-51.8535 116 4.27734 289q63.4053 199 204.589 304q112.26 83 217.598 64q48.2129 -9 83.5889 -39t51.4404 -75t6.69043 -95q-2.04883 -12 -15.4482 -28z" />
    <glyph glyph-name="Egrave" unicode="&#xc8;" horiz-adv-x="576" 
d="M354.685 1002q16.2246 14 30.7061 19.5q14.4805 5.5 18.8691 -1.5l95.8799 -150q4.3877 -7 -3.87988 -21.5q-8.26855 -14.5 -24.4932 -28.5t-30.7051 -19.5q-14.4814 -5.5 -18.8691 1.5l-95.8809 150q-4.3877 7 3.88086 21.5t24.4922 28.5zM647.297 758q10 0 9.12598 -10
q-0.961914 -11 -13.8613 -27t-29.9053 -27.5t-28.0059 -11.5h-337l-48.4902 -280h341q15 0 6.33789 -19q-10.1865 -25 -34.0859 -41t-34.8994 -16h-292l-49.1895 -288h385q15 0 6.33887 -19q-10.1865 -25 -34.0859 -41t-34.8994 -16h-393q-7.08789 -1 -10.2812 2.5
q-3.19434 3.5 -1.49512 11.5l123.799 718q1.96289 11 15.4492 28q24.5361 29 49.0615 35q5.08691 1 7.08691 1h4h394z" />
    <glyph glyph-name="Eacute" unicode="&#xc9;" horiz-adv-x="576" 
d="M583.754 966.5q12.7188 2.5 14.4307 -6.5q1.71289 -9 -9.68652 -25q-53.7344 -77 -114.195 -128q-16.2246 -14 -30.6182 -18.5t-17.7373 3t6.01172 23t34.1924 36.5t61.2979 72q10.3115 15 26.9482 28q16.6377 13 29.3564 15.5zM647.297 758q10 0 9.12598 -10
q-0.961914 -11 -13.8613 -27t-29.9053 -27.5t-28.0059 -11.5h-337l-48.4902 -280h341q15 0 6.33789 -19q-10.1865 -25 -34.0859 -41t-34.8994 -16h-292l-49.1895 -288h385q15 0 6.33887 -19q-10.1865 -25 -34.0859 -41t-34.8994 -16h-393q-7.08789 -1 -10.2812 2.5
q-3.19434 3.5 -1.49512 11.5l123.799 718q1.96289 11 15.4492 28q24.5361 29 49.0615 35q5.08691 1 7.08691 1h4h394z" />
    <glyph glyph-name="Ecircumflex" unicode="&#xca;" horiz-adv-x="576" 
d="M350.396 819.5q-17.0059 -11.5 -26.0059 -11.5t-11.5625 5q-4.03809 11 12.7988 32l98.8457 124l24.2734 26q31.5361 29 42.7002 8l60.8916 -127q3.3877 -7 -5.96777 -22.5t-25.5801 -29.5t-30.6182 -18.5t-17.7812 2.5l-45.5156 97l-47.0732 -58
q-12.3994 -16 -29.4053 -27.5zM647.297 758q10 0 9.12598 -10q-0.961914 -11 -13.8613 -27t-29.9053 -27.5t-28.0059 -11.5h-337l-48.4902 -280h341q15 0 6.33789 -19q-10.1865 -25 -34.0859 -41t-34.8994 -16h-292l-49.1895 -288h385q15 0 6.33887 -19
q-10.1865 -25 -34.0859 -41t-34.8994 -16h-393q-7.08789 -1 -10.2812 2.5q-3.19434 3.5 -1.49512 11.5l123.799 718q1.96289 11 15.4492 28q24.5361 29 49.0615 35q5.08691 1 7.08691 1h4h394z" />
    <glyph glyph-name="Edieresis" unicode="&#xcb;" horiz-adv-x="576" 
d="M291.852 849q0.923828 22 16.2354 37q15.3125 15 34.3125 15t31.6875 -15q12.6885 -15 10.7646 -37q-1.9248 -22 -17.2363 -37q-15.3125 -15 -34.3125 -15t-31.6875 15q-12.6885 15 -9.76367 37zM449.501 845q0.924805 22 16.2363 37q15.3125 15 34.3125 15t31.6875 -15
q12.6885 -15 10.7637 -37q-1.92383 -22 -17.2354 -37q-15.3125 -15 -34.3125 -15t-31.6875 15q-12.6885 15 -9.76465 37zM647.297 758q10 0 9.12598 -10q-0.961914 -11 -13.8613 -27t-29.9053 -27.5t-28.0059 -11.5h-337l-48.4902 -280h341q15 0 6.33789 -19
q-10.1865 -25 -34.0859 -41t-34.8994 -16h-292l-49.1895 -288h385q15 0 6.33887 -19q-10.1865 -25 -34.0859 -41t-34.8994 -16h-393q-7.08789 -1 -10.2812 2.5q-3.19434 3.5 -1.49512 11.5l123.799 718q1.96289 11 15.4492 28q24.5361 29 49.0615 35q5.08691 1 7.08691 1h4
h394z" />
    <glyph glyph-name="Igrave" unicode="&#xcc;" horiz-adv-x="247" 
d="M116.685 960q16.2246 14 30.7061 19.5q14.4805 5.5 18.8691 -1.5l95.8799 -150q4.3877 -7 -3.87988 -21.5q-8.26855 -14.5 -24.4932 -28.5t-30.7051 -19.5q-14.4814 -5.5 -18.8691 1.5l-95.8809 150q-4.3877 7 3.88086 21.5t24.4922 28.5zM209.104 721.5
q13.3564 15.5 27.1436 24.5t21.9619 11q18.4375 5 16.0381 -11l-123.974 -720q-1.96289 -11 -15.3623 -27t-27.1865 -25t-21.9619 -11q-18.4375 -5 -16.0381 11l123.974 720q2.0498 12 15.4053 27.5z" />
    <glyph glyph-name="Iacute" unicode="&#xcd;" horiz-adv-x="247" 
d="M400.754 966.5q12.7188 2.5 14.4307 -6.5q1.71289 -9 -9.68652 -25q-53.7344 -77 -114.195 -128q-16.2246 -14 -30.6182 -18.5t-17.7373 3t6.01172 23t34.1924 36.5t61.2979 72q10.3115 15 26.9482 28q16.6377 13 29.3564 15.5zM209.104 721.5q13.3564 15.5 27.1436 24.5
t21.9619 11q18.4375 5 16.0381 -11l-123.974 -720q-1.96289 -11 -15.3623 -27t-27.1865 -25t-21.9619 -11q-18.4375 -5 -16.0381 11l123.974 720q2.0498 12 15.4053 27.5z" />
    <glyph glyph-name="Icircumflex" unicode="&#xce;" horiz-adv-x="247" 
d="M167.396 819.5q-17.0059 -11.5 -26.0059 -11.5t-11.5625 5q-4.03809 11 12.7988 32l98.8457 124l24.2734 26q31.5361 29 42.7002 8l60.8916 -127q3.3877 -7 -5.96777 -22.5t-25.5801 -29.5t-30.6182 -18.5t-17.7812 2.5l-45.5156 97l-47.0732 -58
q-12.3994 -16 -29.4053 -27.5zM209.104 721.5q13.3564 15.5 27.1436 24.5t21.9619 11q18.4375 5 16.0381 -11l-123.974 -720q-1.96289 -11 -15.3623 -27t-27.1865 -25t-21.9619 -11q-18.4375 -5 -16.0381 11l123.974 720q2.0498 12 15.4053 27.5z" />
    <glyph glyph-name="Idieresis" unicode="&#xcf;" horiz-adv-x="247" 
d="M107.852 849q0.923828 22 16.2354 37q15.3125 15 34.3125 15t31.6875 -15q12.6885 -15 10.7646 -37q-1.9248 -22 -17.2363 -37q-15.3125 -15 -34.3125 -15t-31.6875 15q-12.6885 15 -9.76367 37zM265.501 845q0.924805 22 16.2363 37q15.3125 15 34.3125 15t31.6875 -15
q12.6885 -15 10.7637 -37q-1.92383 -22 -17.2354 -37q-15.3125 -15 -34.3125 -15t-31.6875 15q-12.6885 15 -9.76465 37zM209.104 721.5q13.3564 15.5 27.1436 24.5t21.9619 11q18.4375 5 16.0381 -11l-123.974 -720q-1.96289 -11 -15.3623 -27t-27.1865 -25t-21.9619 -11
q-18.4375 -5 -16.0381 11l123.974 720q2.0498 12 15.4053 27.5z" />
    <glyph glyph-name="Eth" unicode="&#xd0;" horiz-adv-x="683" 
d="M31 328q3 9 12 22t25 24t27 11h254q15 0 8 -19q-8 -25 -30 -41q-23 -16 -34 -16h-254q-14 0 -8 19zM89 -26l70 720q6 38 37 56q12 7 27 8q454 27 442 -371q-5 -150 -83.5 -254.5t-198.5 -142.5t-285 -28q-10 0 -9 12zM166 37q146 -8 239 22.5t128 78.5q51 69 56 195
q5 174 -84 261.5t-276 89.5z" />
    <glyph glyph-name="Ntilde" unicode="&#xd1;" horiz-adv-x="607" 
d="M502.399 897q24.7988 32 52.4111 39q18.4375 5 16.0381 -11q-0.0878906 -1 -0.981445 -5.5t-1.02441 -6q-0.131836 -1.5 -1.52539 -6t-2.1123 -7t-2.6123 -7t-4.24316 -8.5l-4.69922 -8q-17.4492 -28 -39.2617 -43q-21.8115 -15 -30.6172 -18.5
q-8.80664 -3.5 -20.8066 -3.5q-16.9121 1 -23.5625 5l-38.0762 22l-39.25 20q-23.7988 -32 -50.5869 -41q-20.6123 -7 -20.3877 7l0.525391 6q-0.475586 6 -0.712891 9q-0.238281 3 0.917969 10.5t3.6377 13q2.48047 5.5 6.72363 14q4.24414 8.5 9.85645 15.5
q25.624 30 60.1104 47q16.7002 8 28.0244 6q11.3252 -2 12.8252 -2t2.41309 -1l58.376 -30zM116.825 -2q-13.3994 -16 -27.1426 -24.5q-13.7441 -8.5 -21.9189 -10.5q-18.4375 -5 -16.0381 11l132.974 720q42.1113 47 59.4424 56.5t20.7188 2.5l243.521 -600l94.3174 541
q1.96289 11 15.4053 27.5q13.4434 16.5 27.1865 25q13.7441 8.5 21.9189 10.5q18.4375 5 16.0381 -11l-125.974 -720q-2.0498 -12 -22.3623 -27q-20.3115 -15 -39.0117 -23l-18.7871 -9l-244.259 603l-100.58 -544q-2.0498 -12 -15.4492 -28z" />
    <glyph glyph-name="Ograve" unicode="&#xd2;" horiz-adv-x="673" 
d="M342.685 960q16.2246 14 30.7061 19.5q14.4805 5.5 18.8691 -1.5l95.8799 -150q4.3877 -7 -3.87988 -21.5q-8.26855 -14.5 -24.4932 -28.5t-30.7051 -19.5q-14.4814 -5.5 -18.8691 1.5l-95.8809 150q-4.3877 7 3.88086 21.5t24.4922 28.5zM498.297 758
q261.301 -8 189.452 -395q-31.8682 -170 -112.527 -269q-112.982 -137 -274.545 -132q-262.301 8 -196.076 365q17.3965 96 46.1934 168q28.7979 72 77.8711 130q113.069 138 269.632 133zM435.65 682q-105.738 3 -156.073 -58q-26.8867 -33 -52.9844 -97t-41.4443 -148
q-62.125 -333 178.175 -341q109.65 -4 159.985 57q24.624 30 47.5664 86.5q22.9414 56.5 36.3262 129.5q67.749 363 -171.551 371z" />
    <glyph glyph-name="Oacute" unicode="&#xd3;" horiz-adv-x="673" 
d="M625.754 966.5q12.7188 2.5 14.4307 -6.5q1.71289 -9 -9.68652 -25q-53.7344 -77 -114.195 -128q-16.2246 -14 -30.6182 -18.5t-17.7373 3t6.01172 23t34.1924 36.5t61.2979 72q10.3115 15 26.9482 28q16.6377 13 29.3564 15.5zM498.297 758q261.301 -8 189.452 -395
q-31.8682 -170 -112.527 -269q-112.982 -137 -274.545 -132q-262.301 8 -196.076 365q17.3965 96 46.1934 168q28.7979 72 77.8711 130q113.069 138 269.632 133zM435.65 682q-105.738 3 -156.073 -58q-26.8867 -33 -52.9844 -97t-41.4443 -148q-62.125 -333 178.175 -341
q109.65 -4 159.985 57q24.624 30 47.5664 86.5q22.9414 56.5 36.3262 129.5q67.749 363 -171.551 371z" />
    <glyph glyph-name="Ocircumflex" unicode="&#xd4;" horiz-adv-x="673" 
d="M392.396 819.5q-17.0059 -11.5 -26.0059 -11.5t-11.5625 5q-4.03809 11 12.7988 32l98.8457 124l24.2734 26q31.5361 29 42.7002 8l60.8916 -127q3.3877 -7 -5.96777 -22.5t-25.5801 -29.5t-30.6182 -18.5t-17.7812 2.5l-45.5156 97l-47.0732 -58
q-12.3994 -16 -29.4053 -27.5zM498.297 758q261.301 -8 189.452 -395q-31.8682 -170 -112.527 -269q-112.982 -137 -274.545 -132q-262.301 8 -196.076 365q17.3965 96 46.1934 168q28.7979 72 77.8711 130q113.069 138 269.632 133zM435.65 682q-105.738 3 -156.073 -58
q-26.8867 -33 -52.9844 -97t-41.4443 -148q-62.125 -333 178.175 -341q109.65 -4 159.985 57q24.624 30 47.5664 86.5q22.9414 56.5 36.3262 129.5q67.749 363 -171.551 371z" />
    <glyph glyph-name="Otilde" unicode="&#xd5;" horiz-adv-x="673" 
d="M495.399 897q24.7988 32 52.4111 39q18.4375 5 16.0381 -11q-0.0878906 -1 -0.981445 -5.5t-1.02441 -6q-0.131836 -1.5 -1.52539 -6t-2.1123 -7t-2.6123 -7t-4.24316 -8.5l-4.69922 -8q-17.4492 -28 -39.2617 -43q-21.8115 -15 -30.6172 -18.5
q-8.80664 -3.5 -20.8066 -3.5q-16.9121 1 -23.5625 5l-38.0762 22l-39.25 20q-23.7988 -32 -50.5869 -41q-20.6123 -7 -20.3877 7l0.525391 6q-0.475586 6 -0.712891 9q-0.238281 3 0.917969 10.5t3.6377 13q2.48047 5.5 6.72363 14q4.24414 8.5 9.85645 15.5
q25.624 30 60.1104 47q16.7002 8 28.0244 6q11.3252 -2 12.8252 -2t2.41309 -1l58.376 -30zM498.297 758q261.301 -8 189.452 -395q-31.8682 -170 -112.527 -269q-112.982 -137 -274.545 -132q-262.301 8 -196.076 365q17.3965 96 46.1934 168q28.7979 72 77.8711 130
q113.069 138 269.632 133zM435.65 682q-105.738 3 -156.073 -58q-26.8867 -33 -52.9844 -97t-41.4443 -148q-62.125 -333 178.175 -341q109.65 -4 159.985 57q24.624 30 47.5664 86.5q22.9414 56.5 36.3262 129.5q67.749 363 -171.551 371z" />
    <glyph glyph-name="Odieresis" unicode="&#xd6;" horiz-adv-x="673" 
d="M333.852 849q0.923828 22 16.2354 37q15.3125 15 34.3125 15t31.6875 -15q12.6885 -15 10.7646 -37q-1.9248 -22 -17.2363 -37q-15.3125 -15 -34.3125 -15t-31.6875 15q-12.6885 15 -9.76367 37zM491.501 845q0.924805 22 16.2363 37q15.3125 15 34.3125 15t31.6875 -15
q12.6885 -15 10.7637 -37q-1.92383 -22 -17.2354 -37q-15.3125 -15 -34.3125 -15t-31.6875 15q-12.6885 15 -9.76465 37zM498.297 758q261.301 -8 189.452 -395q-31.8682 -170 -112.527 -269q-112.982 -137 -274.545 -132q-262.301 8 -196.076 365q17.3965 96 46.1934 168
q28.7979 72 77.8711 130q113.069 138 269.632 133zM435.65 682q-105.738 3 -156.073 -58q-26.8867 -33 -52.9844 -97t-41.4443 -148q-62.125 -333 178.175 -341q109.65 -4 159.985 57q24.624 30 47.5664 86.5q22.9414 56.5 36.3262 129.5q67.749 363 -171.551 371z" />
    <glyph glyph-name="multiply" unicode="&#xd7;" horiz-adv-x="340" 
d="M330 344.5q5 -6.5 -2 -21.5t-22 -29l-69 -67l75 -83q5 -6 -1.5 -21t-21 -29t-29 -20t-20.5 0l-75 84l-68 -65q-15 -14 -29 -19.5t-19 1t2 21.5t22 29l65 63l-75 82q-5 6 1.5 21t21 29t29 20t20.5 0l75 -83l72 69q15 14 29 19.5t19 -1z" />
    <glyph glyph-name="Oslash" unicode="&#xd8;" horiz-adv-x="678" 
d="M634 798q13 3 15 -5q3 -9 -6 -24l-492 -846q-9 -15 -24 -29q-16 -13 -29 -16t-15 5q-3 9 6 24l492 846q9 15 24 29q16 13 29 16zM432 758q262 -8 224 -395q-17 -170 -89 -269q-101 -137 -263 -132q-263 8 -228 365q9 96 31.5 168t66.5 130q101 138 258 133zM376 682
q-106 3 -151 -58q-24 -33 -44.5 -97t-28.5 -148q-33 -333 208 -341q110 -4 155 57q22 30 40 86.5t25 129.5q36 363 -204 371z" />
    <glyph glyph-name="Ugrave" unicode="&#xd9;" horiz-adv-x="620" 
d="M319.685 960q16.2246 14 30.7061 19.5q14.4805 5.5 18.8691 -1.5l95.8799 -150q4.3877 -7 -3.87988 -21.5q-8.26855 -14.5 -24.4932 -28.5t-30.7051 -19.5q-14.4814 -5.5 -18.8691 1.5l-95.8809 150q-4.3877 7 3.88086 21.5t24.4922 28.5zM632.148 722
q13.3994 16 27.1426 24.5q13.7441 8.5 21.9189 10.5q18.4375 5 16.0381 -11l-100.505 -566q-0.261719 -3 -1.52441 -6q-20.4609 -51 -55.1338 -93q-60.2979 -72 -132.028 -97.5t-156.38 -21.5q-203.951 12 -160.371 213l87.3936 519q1.96289 11 15.3623 27t26.6865 25
t22.4619 11q18.4375 5 16.0381 -11l-87.5684 -521q-38.4814 -177 144.644 -187q71.6504 -4 115.006 11.5q43.3564 15.5 58.4307 33.5t26.6982 48l100.241 563q2.0498 12 15.4492 28z" />
    <glyph glyph-name="Uacute" unicode="&#xda;" horiz-adv-x="620" 
d="M603.754 966.5q12.7188 2.5 14.4307 -6.5q1.71289 -9 -9.68652 -25q-53.7344 -77 -114.195 -128q-16.2246 -14 -30.6182 -18.5t-17.7373 3t6.01172 23t34.1924 36.5t61.2979 72q10.3115 15 26.9482 28q16.6377 13 29.3564 15.5zM632.148 722q13.3994 16 27.1426 24.5
q13.7441 8.5 21.9189 10.5q18.4375 5 16.0381 -11l-100.505 -566q-0.261719 -3 -1.52441 -6q-20.4609 -51 -55.1338 -93q-60.2979 -72 -132.028 -97.5t-156.38 -21.5q-203.951 12 -160.371 213l87.3936 519q1.96289 11 15.3623 27t26.6865 25t22.4619 11
q18.4375 5 16.0381 -11l-87.5684 -521q-38.4814 -177 144.644 -187q71.6504 -4 115.006 11.5q43.3564 15.5 58.4307 33.5t26.6982 48l100.241 563q2.0498 12 15.4492 28z" />
    <glyph glyph-name="Ucircumflex" unicode="&#xdb;" horiz-adv-x="620" 
d="M370.396 819.5q-17.0059 -11.5 -26.0059 -11.5t-11.5625 5q-4.03809 11 12.7988 32l98.8457 124l24.2734 26q31.5361 29 42.7002 8l60.8916 -127q3.3877 -7 -5.96777 -22.5t-25.5801 -29.5t-30.6182 -18.5t-17.7812 2.5l-45.5156 97l-47.0732 -58
q-12.3994 -16 -29.4053 -27.5zM632.148 722q13.3994 16 27.1426 24.5q13.7441 8.5 21.9189 10.5q18.4375 5 16.0381 -11l-100.505 -566q-0.261719 -3 -1.52441 -6q-20.4609 -51 -55.1338 -93q-60.2979 -72 -132.028 -97.5t-156.38 -21.5q-203.951 12 -160.371 213
l87.3936 519q1.96289 11 15.3623 27t26.6865 25t22.4619 11q18.4375 5 16.0381 -11l-87.5684 -521q-38.4814 -177 144.644 -187q71.6504 -4 115.006 11.5q43.3564 15.5 58.4307 33.5t26.6982 48l100.241 563q2.0498 12 15.4492 28z" />
    <glyph glyph-name="Udieresis" unicode="&#xdc;" horiz-adv-x="620" 
d="M310.852 849q0.923828 22 16.2354 37q15.3125 15 34.3125 15t31.6875 -15q12.6885 -15 10.7646 -37q-1.9248 -22 -17.2363 -37q-15.3125 -15 -34.3125 -15t-31.6875 15q-12.6885 15 -9.76367 37zM468.501 845q0.924805 22 16.2363 37q15.3125 15 34.3125 15t31.6875 -15
q12.6885 -15 10.7637 -37q-1.92383 -22 -17.2354 -37q-15.3125 -15 -34.3125 -15t-31.6875 15q-12.6885 15 -9.76465 37zM632.148 722q13.3994 16 27.1426 24.5q13.7441 8.5 21.9189 10.5q18.4375 5 16.0381 -11l-100.505 -566q-0.261719 -3 -1.52441 -6
q-20.4609 -51 -55.1338 -93q-60.2979 -72 -132.028 -97.5t-156.38 -21.5q-203.951 12 -160.371 213l87.3936 519q1.96289 11 15.3623 27t26.6865 25t22.4619 11q18.4375 5 16.0381 -11l-87.5684 -521q-38.4814 -177 144.644 -187q71.6504 -4 115.006 11.5
q43.3564 15.5 58.4307 33.5t26.6982 48l100.241 563q2.0498 12 15.4492 28z" />
    <glyph glyph-name="Yacute" unicode="&#xdd;" horiz-adv-x="539" 
d="M560.754 966.5q12.7188 2.5 14.4307 -6.5q1.71289 -9 -9.68652 -25q-53.7344 -77 -114.195 -128q-16.2246 -14 -30.6182 -18.5t-17.7373 3t6.01172 23t34.1924 36.5t61.2979 72q10.3115 15 26.9482 28q16.6377 13 29.3564 15.5zM132.679 739.5q16.1816 13.5 30.0312 17.5
t17.1504 -4l157.265 -420l270.324 381q11.3115 15 27.9482 28q16.6377 13 29.3564 15.5t13.8877 -7t-10.1436 -24.5l-318.271 -449l-43.9531 -251q-1.96289 -11 -15.3623 -27t-27.1865 -25t-21.9619 -11q-18.4375 -5 -16.0381 11l45.3906 256l-171.029 457
q-3.2998 8 6.55566 23.5t26.0361 29z" />
    <glyph glyph-name="Thorn" unicode="&#xde;" horiz-adv-x="598" 
d="M141 722q12 16 25 24.5t21 10.5q18 5 17 -11l-17 -175q208 19 310.5 -25t92.5 -156q-6 -76 -48 -129.5t-90 -81.5q-103 -61 -305 -40l-11 -113q-1 -11 -13 -27.5t-25 -25t-21 -10.5q-18 -5 -17 11l68 720q1 12 13 28zM181 498l-26 -276q102 -16 175 -9q132 13 159 48
q20 26 25 77q8 94 -87 134q-82 36 -246 26z" />
    <glyph glyph-name="germandbls" unicode="&#xdf;" horiz-adv-x="556" 
d="M112 -1q-12 -16 -24.5 -25t-21.5 -11q-18 -5 -17 11q24 314 40 467q10 100 58 165q81 110 216 104q152 -7 128 -130q-10 -50 -50.5 -101.5t-100.5 -91.5l198 -165q2 -2 3 -6q20 -71 -31 -140q-56 -77 -145 -96q-87 -19 -187 -12q-15 1 -8 20q9 25 31.5 41t32.5 15
q85 -4 147 8.5t78 25.5q6 9 8.5 31.5t-1.5 42.5l-228 190q-20 19 23 53q10 8 26 17q59 27 85 50t34 42q49 123 -99 130q-34 1 -61 -5q-36 -9 -47 -25q-26 -36 -34 -113q-16 -152 -40 -465q-1 -11 -13 -27z" />
    <glyph glyph-name="agrave" unicode="&#xe0;" horiz-adv-x="516" 
d="M213.685 753q16.2246 14 30.7061 19.5q14.4805 5.5 18.8691 -1.5l95.8799 -150q4.3877 -7 -3.87988 -21.5q-8.26855 -14.5 -24.4932 -28.5t-30.7051 -19.5q-14.4814 -5.5 -18.8691 1.5l-95.8809 150q-4.3877 7 3.88086 21.5t24.4922 28.5zM514.292 60.5
q1.16895 -9.5 -10.7305 -25.5t-38.6494 -36q-26.749 -20 -55.7109 -31q-56.9238 -22 -66.251 20q-4.5127 17 0.510742 63q-57.5107 -63 -112.172 -82q-54.6621 -19 -99.5254 -6q-139.501 40 -57.1367 330q27.3965 96 80.8193 158q91.2705 106 208.871 90
q49.4756 -6 74.7646 -37q25.7109 31 51.2354 37q8.1748 2 12.3691 -1.5t2.49414 -11.5q-94.9971 -423 -82.6328 -476q5.90137 -24 24.6885 -15q8.34961 4 24.4434 16.5q16.0928 12.5 28.7676 14.5t13.8447 -7.5zM357.207 151q13.9971 80 18.9209 102
q43.1436 196 -78.457 212q-29.6504 4 -52.0879 -1q-30.5244 -6 -42.6621 -19q-27.7988 -32 -50.9707 -114t-26.6816 -145q-4.8457 -124 75.1426 -147q61.4258 -18 99.0117 23q27.624 30 57.7842 89z" />
    <glyph glyph-name="aacute" unicode="&#xe1;" horiz-adv-x="516" 
d="M497.754 759.5q12.7188 2.5 14.4307 -6.5q1.71289 -9 -9.68652 -25q-53.7344 -77 -114.195 -128q-16.2246 -14 -30.6182 -18.5t-17.7373 3t6.01172 23t34.1924 36.5t61.2979 72q10.3115 15 26.9482 28q16.6377 13 29.3564 15.5zM514.292 60.5
q1.16895 -9.5 -10.7305 -25.5t-38.6494 -36q-26.749 -20 -55.7109 -31q-56.9238 -22 -66.251 20q-4.5127 17 0.510742 63q-57.5107 -63 -112.172 -82q-54.6621 -19 -99.5254 -6q-139.501 40 -57.1367 330q27.3965 96 80.8193 158q91.2705 106 208.871 90
q49.4756 -6 74.7646 -37q25.7109 31 51.2354 37q8.1748 2 12.3691 -1.5t2.49414 -11.5q-94.9971 -423 -82.6328 -476q5.90137 -24 24.6885 -15q8.34961 4 24.4434 16.5q16.0928 12.5 28.7676 14.5t13.8447 -7.5zM357.207 151q13.9971 80 18.9209 102
q43.1436 196 -78.457 212q-29.6504 4 -52.0879 -1q-30.5244 -6 -42.6621 -19q-27.7988 -32 -50.9707 -114t-26.6816 -145q-4.8457 -124 75.1426 -147q61.4258 -18 99.0117 23q27.624 30 57.7842 89z" />
    <glyph glyph-name="acircumflex" unicode="&#xe2;" horiz-adv-x="516" 
d="M264.396 612.5q-17.0059 -11.5 -26.0059 -11.5t-11.5625 5q-4.03809 11 12.7988 32l98.8457 124l24.2734 26q31.5361 29 42.7002 8l60.8916 -127q3.3877 -7 -5.96777 -22.5t-25.5801 -29.5t-30.6182 -18.5t-17.7812 2.5l-45.5156 97l-47.0732 -58
q-12.3994 -16 -29.4053 -27.5zM514.292 60.5q1.16895 -9.5 -10.7305 -25.5t-38.6494 -36q-26.749 -20 -55.7109 -31q-56.9238 -22 -66.251 20q-4.5127 17 0.510742 63q-57.5107 -63 -112.172 -82q-54.6621 -19 -99.5254 -6q-139.501 40 -57.1367 330q27.3965 96 80.8193 158
q91.2705 106 208.871 90q49.4756 -6 74.7646 -37q25.7109 31 51.2354 37q8.1748 2 12.3691 -1.5t2.49414 -11.5q-94.9971 -423 -82.6328 -476q5.90137 -24 24.6885 -15q8.34961 4 24.4434 16.5q16.0928 12.5 28.7676 14.5t13.8447 -7.5zM357.207 151q13.9971 80 18.9209 102
q43.1436 196 -78.457 212q-29.6504 4 -52.0879 -1q-30.5244 -6 -42.6621 -19q-27.7988 -32 -50.9707 -114t-26.6816 -145q-4.8457 -124 75.1426 -147q61.4258 -18 99.0117 23q27.624 30 57.7842 89z" />
    <glyph glyph-name="atilde" unicode="&#xe3;" horiz-adv-x="516" 
d="M365.399 690q24.7988 32 52.4111 39q18.4375 5 16.0381 -11q-0.0878906 -1 -0.981445 -5.5t-1.02441 -6q-0.131836 -1.5 -1.52539 -6t-2.1123 -7t-2.6123 -7t-4.24316 -8.5l-4.69922 -8q-17.4492 -28 -39.2617 -43q-21.8115 -15 -30.6172 -18.5
q-8.80664 -3.5 -20.8066 -3.5q-16.9121 1 -23.5625 5l-38.0762 22l-39.25 20q-23.7988 -32 -50.5869 -41q-20.6123 -7 -20.3877 7l0.525391 6q-0.475586 6 -0.712891 9q-0.238281 3 0.917969 10.5t3.6377 13q2.48047 5.5 6.72363 14q4.24414 8.5 9.85645 15.5
q25.624 30 60.1104 47q16.7002 8 28.0244 6q11.3252 -2 12.8252 -2t2.41309 -1l58.376 -30zM514.292 60.5q1.16895 -9.5 -10.7305 -25.5t-38.6494 -36q-26.749 -20 -55.7109 -31q-56.9238 -22 -66.251 20q-4.5127 17 0.510742 63q-57.5107 -63 -112.172 -82
q-54.6621 -19 -99.5254 -6q-139.501 40 -57.1367 330q27.3965 96 80.8193 158q91.2705 106 208.871 90q49.4756 -6 74.7646 -37q25.7109 31 51.2354 37q8.1748 2 12.3691 -1.5t2.49414 -11.5q-94.9971 -423 -82.6328 -476q5.90137 -24 24.6885 -15q8.34961 4 24.4434 16.5
q16.0928 12.5 28.7676 14.5t13.8447 -7.5zM357.207 151q13.9971 80 18.9209 102q43.1436 196 -78.457 212q-29.6504 4 -52.0879 -1q-30.5244 -6 -42.6621 -19q-27.7988 -32 -50.9707 -114t-26.6816 -145q-4.8457 -124 75.1426 -147q61.4258 -18 99.0117 23
q27.624 30 57.7842 89z" />
    <glyph glyph-name="adieresis" unicode="&#xe4;" horiz-adv-x="516" 
d="M204.852 642q0.923828 22 16.2354 37q15.3125 15 34.3125 15t31.6875 -15q12.6885 -15 10.7646 -37q-1.9248 -22 -17.2363 -37q-15.3125 -15 -34.3125 -15t-31.6875 15q-12.6885 15 -9.76367 37zM362.501 638q0.924805 22 16.2363 37q15.3125 15 34.3125 15t31.6875 -15
q12.6885 -15 10.7637 -37q-1.92383 -22 -17.2354 -37q-15.3125 -15 -34.3125 -15t-31.6875 15q-12.6885 15 -9.76465 37zM514.292 60.5q1.16895 -9.5 -10.7305 -25.5t-38.6494 -36q-26.749 -20 -55.7109 -31q-56.9238 -22 -66.251 20q-4.5127 17 0.510742 63
q-57.5107 -63 -112.172 -82q-54.6621 -19 -99.5254 -6q-139.501 40 -57.1367 330q27.3965 96 80.8193 158q91.2705 106 208.871 90q49.4756 -6 74.7646 -37q25.7109 31 51.2354 37q8.1748 2 12.3691 -1.5t2.49414 -11.5q-94.9971 -423 -82.6328 -476
q5.90137 -24 24.6885 -15q8.34961 4 24.4434 16.5q16.0928 12.5 28.7676 14.5t13.8447 -7.5zM357.207 151q13.9971 80 18.9209 102q43.1436 196 -78.457 212q-29.6504 4 -52.0879 -1q-30.5244 -6 -42.6621 -19q-27.7988 -32 -50.9707 -114t-26.6816 -145
q-4.8457 -124 75.1426 -147q61.4258 -18 99.0117 23q27.624 30 57.7842 89z" />
    <glyph glyph-name="aring" unicode="&#xe5;" horiz-adv-x="516" 
d="M396.081 845q86.6504 -4 81.3037 -88q-3.41113 -39 -13.3789 -61.5t-25.6299 -41.5q-53.6855 -65 -119.335 -61q-86.4756 6 -78.5547 108q3.11133 47 33.3477 84q52.5977 64 122.247 60zM391.688 669q27.0088 103 -69.2529 100q-0.525391 -6 -1.0498 -12
q-6.25977 -83 62.3027 -88h8zM514.292 60.5q1.16895 -9.5 -10.7305 -25.5t-38.6494 -36q-26.749 -20 -55.7109 -31q-56.9238 -22 -66.251 20q-4.5127 17 0.510742 63q-57.5107 -63 -112.172 -82q-54.6621 -19 -99.5254 -6q-139.501 40 -57.1367 330q27.3965 96 80.8193 158
q91.2705 106 208.871 90q49.4756 -6 74.7646 -37q25.7109 31 51.2354 37q8.1748 2 12.3691 -1.5t2.49414 -11.5q-94.9971 -423 -82.6328 -476q5.90137 -24 24.6885 -15q8.34961 4 24.4434 16.5q16.0928 12.5 28.7676 14.5t13.8447 -7.5zM357.207 151q13.9971 80 18.9209 102
q43.1436 196 -78.457 212q-29.6504 4 -52.0879 -1q-30.5244 -6 -42.6621 -19q-27.7988 -32 -50.9707 -114t-26.6816 -145q-4.8457 -124 75.1426 -147q61.4258 -18 99.0117 23q27.624 30 57.7842 89z" />
    <glyph glyph-name="ae" unicode="&#xe6;" horiz-adv-x="773" 
d="M411 205q14 6 20 0t0 -20q-34 -82 -82 -139q-48 -58 -100 -77q-53 -19 -99 -6q-143 40 -86 330q19 96 67 158q82 106 201 90q143 -18 113 -238q-2 -12 -14 -28t-25 -24t-21 -10t-13 1q-4 3 -3 11q26 196 -97 212q-30 4 -52 -1q-30 -6 -41 -19q-25 -32 -39 -106
q-51 -265 72 -300q63 -18 97 23q26 31 52 93q6 14 20 29q16 15 30 21zM433 234q-4 -185 161 -196q35 -3 63 2q36 6 40 14q8 15 23.5 29t28.5 18.5t18 -3.5q7 -13 -19 -47t-53.5 -53.5t-53.5 -26.5q-58 -16 -105 -9q-197 13 -177 249q6 73 22 126.5t51 100.5q80 108 199 103
q189 -7 158 -251q-9 -40 -40 -57q-12 -7 -26 -6zM440 309q7 2 11 2l266 -6q-3 155 -143 160q-68 3 -91 -29q-30 -40 -43 -127z" />
    <glyph glyph-name="ccedilla" unicode="&#xe7;" horiz-adv-x="519" 
d="M246.424 22q16.6377 13 29.3564 15.5q12.7178 2.5 14.9307 -6.5q20.1553 -124 -88.5039 -223q-16.2246 -14 -31.249 -20q-15.0254 -6 -20 0q-4.97559 6 2.79297 20.5q7.76758 14.5 20.8174 26.5t21.3613 27q26.1982 48 13.3594 107q-1.21289 9 9.64258 24.5t27.4922 28.5
zM448.384 113q16.374 10 25.6992 8t6.27539 -14q-10.4111 -39 -36.0781 -69.5q-25.668 -30.5 -51.6553 -47.5q-25.9863 -17 -48.5117 -23q-51.0488 -12 -85.4365 -5q-229.988 23 -165.473 269q56.6299 213 188.927 285q51.4492 28 97.624 30q161.524 6 153.618 -153
q-0.875 -10 -12.7744 -26t-25.7295 -25.5q-13.8311 -9.5 -23.0938 -12.5q-19.6123 -7 -19.2998 8q6.06934 138 -133.455 132q-44.1748 -2 -63.5742 -18q-47.5859 -41 -79.626 -161.5q-32.0391 -120.5 5.21289 -180.5q37.2529 -60 142.29 -71q44.6504 -4 71.4375 5
q3.6123 7 6.07422 18t16.8184 26.5q14.3555 15.5 30.7305 25.5z" />
    <glyph glyph-name="egrave" unicode="&#xe8;" horiz-adv-x="526" 
d="M262.685 753q16.2246 14 30.7061 19.5q14.4805 5.5 18.8691 -1.5l95.8799 -150q4.3877 -7 -3.87988 -21.5q-8.26855 -14.5 -24.4932 -28.5t-30.7051 -19.5q-14.4814 -5.5 -18.8691 1.5l-95.8809 150q-4.3877 7 3.88086 21.5t24.4922 28.5zM163.467 234
q-20.1807 -185 143.856 -196q34.7383 -3 63.1748 2q36.5254 6 41.2246 14q9.3125 15 26.0371 29t30.1182 18.5t17.6934 -3.5q5.86328 -13 -23.1104 -47t-58.1797 -53.5q-29.2051 -19.5 -55.8174 -26.5q-59.3994 -16 -105.787 -9q-195.863 13 -155.222 249
q12.3848 73 33.0635 126.5q20.6797 53.5 59.79 100.5q89.4463 108 208.009 103q188.388 -7 136.047 -251q-12.498 -40 -44.9854 -57q-12.6123 -7 -26.5244 -6zM177.026 309q7.1748 2 11.1748 2l265.476 -6q10.5566 155 -129.006 160q-67.7383 3 -93.5371 -29
q-33.498 -40 -54.1074 -127z" />
    <glyph glyph-name="eacute" unicode="&#xe9;" horiz-adv-x="526" 
d="M545.754 759.5q12.7188 2.5 14.4307 -6.5q1.71289 -9 -9.68652 -25q-53.7344 -77 -114.195 -128q-16.2246 -14 -30.6182 -18.5t-17.7373 3t6.01172 23t34.1924 36.5t61.2979 72q10.3115 15 26.9482 28q16.6377 13 29.3564 15.5zM163.467 234q-20.1807 -185 143.856 -196
q34.7383 -3 63.1748 2q36.5254 6 41.2246 14q9.3125 15 26.0371 29t30.1182 18.5t17.6934 -3.5q5.86328 -13 -23.1104 -47t-58.1797 -53.5q-29.2051 -19.5 -55.8174 -26.5q-59.3994 -16 -105.787 -9q-195.863 13 -155.222 249q12.3848 73 33.0635 126.5
q20.6797 53.5 59.79 100.5q89.4463 108 208.009 103q188.388 -7 136.047 -251q-12.498 -40 -44.9854 -57q-12.6123 -7 -26.5244 -6zM177.026 309q7.1748 2 11.1748 2l265.476 -6q10.5566 155 -129.006 160q-67.7383 3 -93.5371 -29q-33.498 -40 -54.1074 -127z" />
    <glyph glyph-name="ecircumflex" unicode="&#xea;" horiz-adv-x="526" 
d="M312.396 612.5q-17.0059 -11.5 -26.0059 -11.5t-11.5625 5q-4.03809 11 12.7988 32l98.8457 124l24.2734 26q31.5361 29 42.7002 8l60.8916 -127q3.3877 -7 -5.96777 -22.5t-25.5801 -29.5t-30.6182 -18.5t-17.7812 2.5l-45.5156 97l-47.0732 -58
q-12.3994 -16 -29.4053 -27.5zM163.467 234q-20.1807 -185 143.856 -196q34.7383 -3 63.1748 2q36.5254 6 41.2246 14q9.3125 15 26.0371 29t30.1182 18.5t17.6934 -3.5q5.86328 -13 -23.1104 -47t-58.1797 -53.5q-29.2051 -19.5 -55.8174 -26.5q-59.3994 -16 -105.787 -9
q-195.863 13 -155.222 249q12.3848 73 33.0635 126.5q20.6797 53.5 59.79 100.5q89.4463 108 208.009 103q188.388 -7 136.047 -251q-12.498 -40 -44.9854 -57q-12.6123 -7 -26.5244 -6zM177.026 309q7.1748 2 11.1748 2l265.476 -6q10.5566 155 -129.006 160
q-67.7383 3 -93.5371 -29q-33.498 -40 -54.1074 -127z" />
    <glyph glyph-name="edieresis" unicode="&#xeb;" horiz-adv-x="526" 
d="M253.852 642q0.923828 22 16.2354 37q15.3125 15 34.3125 15t31.6875 -15q12.6885 -15 10.7646 -37q-1.9248 -22 -17.2363 -37q-15.3125 -15 -34.3125 -15t-31.6875 15q-12.6885 15 -9.76367 37zM411.501 638q0.924805 22 16.2363 37q15.3125 15 34.3125 15t31.6875 -15
q12.6885 -15 10.7637 -37q-1.92383 -22 -17.2354 -37q-15.3125 -15 -34.3125 -15t-31.6875 15q-12.6885 15 -9.76465 37zM163.467 234q-20.1807 -185 143.856 -196q34.7383 -3 63.1748 2q36.5254 6 41.2246 14q9.3125 15 26.0371 29t30.1182 18.5t17.6934 -3.5
q5.86328 -13 -23.1104 -47t-58.1797 -53.5q-29.2051 -19.5 -55.8174 -26.5q-59.3994 -16 -105.787 -9q-195.863 13 -155.222 249q12.3848 73 33.0635 126.5q20.6797 53.5 59.79 100.5q89.4463 108 208.009 103q188.388 -7 136.047 -251q-12.498 -40 -44.9854 -57
q-12.6123 -7 -26.5244 -6zM177.026 309q7.1748 2 11.1748 2l265.476 -6q10.5566 155 -129.006 160q-67.7383 3 -93.5371 -29q-33.498 -40 -54.1074 -127z" />
    <glyph glyph-name="igrave" unicode="&#xec;" 
d="M87.6846 753q16.2246 14 30.7061 19.5q14.4805 5.5 18.8691 -1.5l95.8799 -150q4.3877 -7 -3.87988 -21.5q-8.26855 -14.5 -24.4932 -28.5t-30.7051 -19.5q-14.4814 -5.5 -18.8691 1.5l-95.8809 150q-4.3877 7 3.88086 21.5t24.4922 28.5zM165.169 505
q13.3994 16 27.1426 24.5q13.7441 8.5 22.9189 10.5q18.3496 4 15.0381 -11l-97.082 -504q-2.0498 -12 -15.4053 -27.5t-27.0986 -24q-13.7441 -8.5 -22.9189 -10.5q-18.3496 -4 -14.9502 12l96.9941 503q1.96191 11 15.3613 27z" />
    <glyph glyph-name="iacute" unicode="&#xed;" 
d="M248.754 759.5q12.7188 2.5 14.4307 -6.5q1.71289 -9 -9.68652 -25q-53.7344 -77 -114.195 -128q-16.2246 -14 -30.6182 -18.5t-17.7373 3t6.01172 23t34.1924 36.5t61.2979 72q10.3115 15 26.9482 28q16.6377 13 29.3564 15.5zM165.169 505q13.3994 16 27.1426 24.5
q13.7441 8.5 22.9189 10.5q18.3496 4 15.0381 -11l-97.082 -504q-2.0498 -12 -15.4053 -27.5t-27.0986 -24q-13.7441 -8.5 -22.9189 -10.5q-18.3496 -4 -14.9502 12l96.9941 503q1.96191 11 15.3613 27z" />
    <glyph glyph-name="icircumflex" unicode="&#xee;" 
d="M138.396 612.5q-17.0059 -11.5 -26.0059 -11.5t-11.5625 5q-4.03809 11 12.7988 32l98.8457 124l24.2734 26q31.5361 29 42.7002 8l60.8916 -127q3.3877 -7 -5.96777 -22.5t-25.5801 -29.5t-30.6182 -18.5t-17.7812 2.5l-45.5156 97l-47.0732 -58
q-12.3994 -16 -29.4053 -27.5zM165.169 505q13.3994 16 27.1426 24.5q13.7441 8.5 22.9189 10.5q18.3496 4 15.0381 -11l-97.082 -504q-2.0498 -12 -15.4053 -27.5t-27.0986 -24q-13.7441 -8.5 -22.9189 -10.5q-18.3496 -4 -14.9502 12l96.9941 503q1.96191 11 15.3613 27z
" />
    <glyph glyph-name="idieresis" unicode="&#xef;" 
d="M78.8516 642q0.923828 22 16.2354 37q15.3125 15 34.3125 15t31.6875 -15q12.6885 -15 10.7646 -37q-1.9248 -22 -17.2363 -37q-15.3125 -15 -34.3125 -15t-31.6875 15q-12.6885 15 -9.76367 37zM236.501 638q0.924805 22 16.2363 37q15.3125 15 34.3125 15t31.6875 -15
q12.6885 -15 10.7637 -37q-1.92383 -22 -17.2354 -37q-15.3125 -15 -34.3125 -15t-31.6875 15q-12.6885 15 -9.76465 37zM165.169 505q13.3994 16 27.1426 24.5q13.7441 8.5 22.9189 10.5q18.3496 4 15.0381 -11l-97.082 -504q-2.0498 -12 -15.4053 -27.5t-27.0986 -24
q-13.7441 -8.5 -22.9189 -10.5q-18.3496 -4 -14.9502 12l96.9941 503q1.96191 11 15.3613 27z" />
    <glyph glyph-name="eth" unicode="&#xf0;" horiz-adv-x="536" 
d="M424 269l-2 2q-74 56 -134 74.5t-91 4.5t-50 -109.5t12 -144t108 -56.5t113 15q28 18 41 96q8 51 3 118zM209.5 468.5q-0.5 12.5 11 29t27.5 26.5l49 31q-61 36 -153 46q-12 1 -13 13.5t9.5 28.5t27 27t28.5 9q121 -14 193 -67l94 59q16 10 28 8t12.5 -14.5t-11 -29
t-27.5 -26.5l-56 -35q42 -50 56 -123q35 -186 12 -287q-24 -107 -99.5 -160.5t-174.5 -43.5q-199 20 -155 240q35 172 146 222q60 27 126 6q30 -10 66 -29q-15 74 -63 121l-93 -58q-16 -10 -28 -8t-12.5 14.5z" />
    <glyph glyph-name="ntilde" unicode="&#xf1;" horiz-adv-x="502" 
d="M165.169 505q13.3994 16 27.1426 24.5q13.7441 8.5 22.9189 10.5q18.3496 4 15.0381 -11l-12.7734 -66q30.7988 32 72.8105 55t84.0117 23q171.175 2 125.446 -235l-48.4893 -280q-1.96289 -11 -15.3623 -27t-27.1865 -25t-21.9619 -11q-18.4375 -5 -16.0381 11
l48.4902 280q41.542 212 -105.545 211q-29 0 -43.7002 -8q-36.749 -20 -74.6211 -110q-0.0869141 -1 -0.261719 -3l-61.9014 -319q-2.0498 -12 -15.4053 -27.5t-27.0986 -24q-13.7441 -8.5 -22.9189 -10.5q-18.3496 -4 -14.9502 12l96.9941 503q1.96191 11 15.3613 27z
M340.399 702q24.7988 32 52.4111 39q18.4375 5 16.0381 -11q-0.0878906 -1 -0.981445 -5.5t-1.02441 -6q-0.131836 -1.5 -1.52539 -6t-2.1123 -7t-2.6123 -7t-4.24316 -8.5l-4.69922 -8q-17.4492 -28 -39.2617 -43q-21.8115 -15 -30.6172 -18.5q-8.80664 -3.5 -20.8066 -3.5
q-16.9121 1 -23.5625 5l-38.0762 22l-39.25 20q-23.7988 -32 -50.5869 -41q-20.6123 -7 -20.3877 7l0.525391 6q-0.475586 6 -0.712891 9q-0.238281 3 0.917969 10.5t3.6377 13q2.48047 5.5 6.72363 14q4.24414 8.5 9.85645 15.5q25.624 30 60.1104 47q16.7002 8 28.0244 6
q11.3252 -2 12.8252 -2t2.41309 -1l58.376 -30z" />
    <glyph glyph-name="ograve" unicode="&#xf2;" horiz-adv-x="538" 
d="M262.685 753q16.2246 14 30.7061 19.5q14.4805 5.5 18.8691 -1.5l95.8799 -150q4.3877 -7 -3.87988 -21.5q-8.26855 -14.5 -24.4932 -28.5t-30.7051 -19.5q-14.4814 -5.5 -18.8691 1.5l-95.8809 150q-4.3877 7 3.88086 21.5t24.4922 28.5zM407.317 541
q182.601 -16 121.674 -301q-24.9707 -114 -83.0059 -183q-89.2715 -106 -207.309 -95q-200.426 18 -148.26 260q15.0352 69 37.083 121t60.9844 97q94.7949 112 218.833 101zM342.671 465q-75.3877 7 -105.537 -29q-16.6611 -19 -35.4658 -62.5t-30.8779 -101.5
q-47.0674 -218 132.533 -234q68.4756 -6 93.0117 23q12.3125 15 27.3301 49.5t24.9531 79.5q56.8281 261 -105.947 275z" />
    <glyph glyph-name="oacute" unicode="&#xf3;" horiz-adv-x="538" 
d="M545.754 759.5q12.7188 2.5 14.4307 -6.5q1.71289 -9 -9.68652 -25q-53.7344 -77 -114.195 -128q-16.2246 -14 -30.6182 -18.5t-17.7373 3t6.01172 23t34.1924 36.5t61.2979 72q10.3115 15 26.9482 28q16.6377 13 29.3564 15.5zM407.317 541q182.601 -16 121.674 -301
q-24.9707 -114 -83.0059 -183q-89.2715 -106 -207.309 -95q-200.426 18 -148.26 260q15.0352 69 37.083 121t60.9844 97q94.7949 112 218.833 101zM342.671 465q-75.3877 7 -105.537 -29q-16.6611 -19 -35.4658 -62.5t-30.8779 -101.5q-47.0674 -218 132.533 -234
q68.4756 -6 93.0117 23q12.3125 15 27.3301 49.5t24.9531 79.5q56.8281 261 -105.947 275z" />
    <glyph glyph-name="ocircumflex" unicode="&#xf4;" horiz-adv-x="538" 
d="M312.396 612.5q-17.0059 -11.5 -26.0059 -11.5t-11.5625 5q-4.03809 11 12.7988 32l98.8457 124l24.2734 26q31.5361 29 42.7002 8l60.8916 -127q3.3877 -7 -5.96777 -22.5t-25.5801 -29.5t-30.6182 -18.5t-17.7812 2.5l-45.5156 97l-47.0732 -58
q-12.3994 -16 -29.4053 -27.5zM407.317 541q182.601 -16 121.674 -301q-24.9707 -114 -83.0059 -183q-89.2715 -106 -207.309 -95q-200.426 18 -148.26 260q15.0352 69 37.083 121t60.9844 97q94.7949 112 218.833 101zM342.671 465q-75.3877 7 -105.537 -29
q-16.6611 -19 -35.4658 -62.5t-30.8779 -101.5q-47.0674 -218 132.533 -234q68.4756 -6 93.0117 23q12.3125 15 27.3301 49.5t24.9531 79.5q56.8281 261 -105.947 275z" />
    <glyph glyph-name="otilde" unicode="&#xf5;" horiz-adv-x="538" 
d="M407.317 541q182.601 -16 121.674 -301q-24.9707 -114 -83.0059 -183q-89.2715 -106 -207.309 -95q-200.426 18 -148.26 260q15.0352 69 37.083 121t60.9844 97q94.7949 112 218.833 101zM342.671 465q-75.3877 7 -105.537 -29q-16.6611 -19 -35.4658 -62.5
t-30.8779 -101.5q-47.0674 -218 132.533 -234q68.4756 -6 93.0117 23q12.3125 15 27.3301 49.5t24.9531 79.5q56.8281 261 -105.947 275zM443.399 702q24.7988 32 52.4111 39q18.4375 5 16.0381 -11q-0.0878906 -1 -0.981445 -5.5t-1.02441 -6q-0.131836 -1.5 -1.52539 -6
t-2.1123 -7t-2.6123 -7t-4.24316 -8.5l-4.69922 -8q-17.4492 -28 -39.2617 -43q-21.8115 -15 -30.6172 -18.5q-8.80664 -3.5 -20.8066 -3.5q-16.9121 1 -23.5625 5l-38.0762 22l-39.25 20q-23.7988 -32 -50.5869 -41q-20.6123 -7 -20.3877 7l0.525391 6
q-0.475586 6 -0.712891 9q-0.238281 3 0.917969 10.5t3.6377 13q2.48047 5.5 6.72363 14q4.24414 8.5 9.85645 15.5q25.624 30 60.1104 47q16.7002 8 28.0244 6q11.3252 -2 12.8252 -2t2.41309 -1l58.376 -30z" />
    <glyph glyph-name="odieresis" unicode="&#xf6;" horiz-adv-x="538" 
d="M253.852 642q0.923828 22 16.2354 37q15.3125 15 34.3125 15t31.6875 -15q12.6885 -15 10.7646 -37q-1.9248 -22 -17.2363 -37q-15.3125 -15 -34.3125 -15t-31.6875 15q-12.6885 15 -9.76367 37zM411.501 638q0.924805 22 16.2363 37q15.3125 15 34.3125 15t31.6875 -15
q12.6885 -15 10.7637 -37q-1.92383 -22 -17.2354 -37q-15.3125 -15 -34.3125 -15t-31.6875 15q-12.6885 15 -9.76465 37zM407.317 541q182.601 -16 121.674 -301q-24.9707 -114 -83.0059 -183q-89.2715 -106 -207.309 -95q-200.426 18 -148.26 260q15.0352 69 37.083 121
t60.9844 97q94.7949 112 218.833 101zM342.671 465q-75.3877 7 -105.537 -29q-16.6611 -19 -35.4658 -62.5t-30.8779 -101.5q-47.0674 -218 132.533 -234q68.4756 -6 93.0117 23q12.3125 15 27.3301 49.5t24.9531 79.5q56.8281 261 -105.947 275z" />
    <glyph glyph-name="divide" unicode="&#xf7;" horiz-adv-x="475" 
d="M183 407q3 9 12 22t25 24t27 11h98q15 0 8 -19q-8 -25 -30.5 -41t-33.5 -16h-98q-14 0 -8 19zM154 106q3 9 12 22t25 24.5t27 11.5l83 2q15 0 10 -18q-8 -25 -30.5 -41.5t-33.5 -16.5l-83 -2q-16 -1 -10 18zM28 261q3 9 12 22t25 24t27 11h367q15 0 8 -19
q-8 -25 -30.5 -41t-33.5 -16h-367q-14 0 -8 19z" />
    <glyph glyph-name="oslash" unicode="&#xf8;" horiz-adv-x="494" 
d="M489 611q13 3 16 -5q3 -9 -5 -24l-376 -658q-9 -15 -25 -28t-28 -17q-13 -3 -16 5q-3 9 5 24l376 658q9 15 25 28q15 14 28 17zM360 541q184 -16 148 -301q-15 -114 -67 -183q-80 -106 -199 -95q-202 18 -171 260q9 69 26.5 121t52.5 97q85 112 210 101zM302 465
q-76 7 -103 -29q-15 -19 -30 -62.5t-22 -101.5q-28 -218 153 -234q69 -6 91 23q11 15 23 49.5t18 79.5q34 261 -130 275z" />
    <glyph glyph-name="ugrave" unicode="&#xf9;" horiz-adv-x="509" 
d="M250.685 753q16.2246 14 30.7061 19.5q14.4805 5.5 18.8691 -1.5l95.8799 -150q4.3877 -7 -3.87988 -21.5q-8.26855 -14.5 -24.4932 -28.5t-30.7051 -19.5q-14.4814 -5.5 -18.8691 1.5l-95.8809 150q-4.3877 7 3.88086 21.5t24.4922 28.5zM428.825 -2
q-13.3994 -16 -27.1426 -24.5q-13.7441 -8.5 -22.9189 -10.5q-18.3496 -4 -14.9502 12l12.6846 65q-30.7988 -32 -72.8096 -55q-42.0117 -23 -84.0117 -23q-171.175 -2 -125.359 236l48.4023 279q1.96191 11 15.4053 27.5t27.1865 25q13.7441 8.5 21.9189 10.5
q18.4375 5 16.0381 -11l-48.4902 -280q-41.542 -212 105.545 -211q29 0 43.7002 8q36.749 20 74.6211 110q0.0869141 1 0.261719 3l61.9014 319q2.0498 12 15.4053 27.5t27.0986 24q13.7441 8.5 22.9189 10.5q18.3496 4 15.0381 -11l-97.082 -504q-1.96191 -11 -15.3613 -27
z" />
    <glyph glyph-name="uacute" unicode="&#xfa;" horiz-adv-x="509" 
d="M534.754 759.5q12.7188 2.5 14.4307 -6.5q1.71289 -9 -9.68652 -25q-53.7344 -77 -114.195 -128q-16.2246 -14 -30.6182 -18.5t-17.7373 3t6.01172 23t34.1924 36.5t61.2979 72q10.3115 15 26.9482 28q16.6377 13 29.3564 15.5zM428.825 -2q-13.3994 -16 -27.1426 -24.5
q-13.7441 -8.5 -22.9189 -10.5q-18.3496 -4 -14.9502 12l12.6846 65q-30.7988 -32 -72.8096 -55q-42.0117 -23 -84.0117 -23q-171.175 -2 -125.359 236l48.4023 279q1.96191 11 15.4053 27.5t27.1865 25q13.7441 8.5 21.9189 10.5q18.4375 5 16.0381 -11l-48.4902 -280
q-41.542 -212 105.545 -211q29 0 43.7002 8q36.749 20 74.6211 110q0.0869141 1 0.261719 3l61.9014 319q2.0498 12 15.4053 27.5t27.0986 24q13.7441 8.5 22.9189 10.5q18.3496 4 15.0381 -11l-97.082 -504q-1.96191 -11 -15.3613 -27z" />
    <glyph glyph-name="ucircumflex" unicode="&#xfb;" horiz-adv-x="509" 
d="M301.396 612.5q-17.0059 -11.5 -26.0059 -11.5t-11.5625 5q-4.03809 11 12.7988 32l98.8457 124l24.2734 26q31.5361 29 42.7002 8l60.8916 -127q3.3877 -7 -5.96777 -22.5t-25.5801 -29.5t-30.6182 -18.5t-17.7812 2.5l-45.5156 97l-47.0732 -58
q-12.3994 -16 -29.4053 -27.5zM428.825 -2q-13.3994 -16 -27.1426 -24.5q-13.7441 -8.5 -22.9189 -10.5q-18.3496 -4 -14.9502 12l12.6846 65q-30.7988 -32 -72.8096 -55q-42.0117 -23 -84.0117 -23q-171.175 -2 -125.359 236l48.4023 279q1.96191 11 15.4053 27.5
t27.1865 25q13.7441 8.5 21.9189 10.5q18.4375 5 16.0381 -11l-48.4902 -280q-41.542 -212 105.545 -211q29 0 43.7002 8q36.749 20 74.6211 110q0.0869141 1 0.261719 3l61.9014 319q2.0498 12 15.4053 27.5t27.0986 24q13.7441 8.5 22.9189 10.5q18.3496 4 15.0381 -11
l-97.082 -504q-1.96191 -11 -15.3613 -27z" />
    <glyph glyph-name="udieresis" unicode="&#xfc;" horiz-adv-x="509" 
d="M241.852 642q0.923828 22 16.2354 37q15.3125 15 34.3125 15t31.6875 -15q12.6885 -15 10.7646 -37q-1.9248 -22 -17.2363 -37q-15.3125 -15 -34.3125 -15t-31.6875 15q-12.6885 15 -9.76367 37zM399.501 638q0.924805 22 16.2363 37q15.3125 15 34.3125 15t31.6875 -15
q12.6885 -15 10.7637 -37q-1.92383 -22 -17.2354 -37q-15.3125 -15 -34.3125 -15t-31.6875 15q-12.6885 15 -9.76465 37zM428.825 -2q-13.3994 -16 -27.1426 -24.5q-13.7441 -8.5 -22.9189 -10.5q-18.3496 -4 -14.9502 12l12.6846 65q-30.7988 -32 -72.8096 -55
q-42.0117 -23 -84.0117 -23q-171.175 -2 -125.359 236l48.4023 279q1.96191 11 15.4053 27.5t27.1865 25q13.7441 8.5 21.9189 10.5q18.4375 5 16.0381 -11l-48.4902 -280q-41.542 -212 105.545 -211q29 0 43.7002 8q36.749 20 74.6211 110q0.0869141 1 0.261719 3
l61.9014 319q2.0498 12 15.4053 27.5t27.0986 24q13.7441 8.5 22.9189 10.5q18.3496 4 15.0381 -11l-97.082 -504q-1.96191 -11 -15.3613 -27z" />
    <glyph glyph-name="yacute" unicode="&#xfd;" horiz-adv-x="528" 
d="M542.754 759.5q12.7188 2.5 14.4307 -6.5q1.71289 -9 -9.68652 -25q-53.7344 -77 -114.195 -128q-16.2246 -14 -30.6182 -18.5t-17.7373 3t6.01172 23t34.1924 36.5t61.2979 72q10.3115 15 26.9482 28q16.6377 13 29.3564 15.5zM491.582 504q12.8984 16 26.6865 25
q13.7871 9 21.9619 11q19.4375 5 17.125 -10q-48.4258 -325 -64.5479 -395q-15.2598 -83 -38.5068 -143q-23.248 -60 -68.6025 -115.5t-101.716 -82.5t-111.273 -26q-112.913 1 -148.878 70q-3.3877 7 5.46777 22.5t25.0361 29t30.6182 18.5t18.8252 -2
q30.665 -61 131.577 -62q71.9131 -1 102.324 38q41.5479 52 67.5186 166q-108.32 -118 -211.347 -84q-136.152 44 -22.957 515q3.0498 12 16.9053 27.5q13.8564 15.5 27.0996 24t21.875 10q8.63086 1.5 12.3242 -2q3.69434 -3.5 2.08203 -10.5q-70.3262 -301 -39.8223 -421
q15.0146 -57 51.9648 -69q60.251 -20 98.8369 21q29.7119 31 61.3096 95q1.26172 3 3.6123 7q17.9209 102 49.6377 316q1.96191 11 14.8623 27z" />
    <glyph glyph-name="thorn" unicode="&#xfe;" horiz-adv-x="491" 
d="M185 679l-23 -273q53 79 146 79t134 -71q36 -68 27 -174.5t-59.5 -177.5t-141.5 -73q-100 0 -136 82l-21 -247l-66 -6l75 861h65zM380 385q-30 52 -84 52t-97.5 -54t-51.5 -143q-18 -202 115 -202q57 0 94.5 53.5t45.5 147.5t-22 146z" />
    <glyph glyph-name="ydieresis" unicode="&#xff;" horiz-adv-x="528" 
d="M249.852 642q0.923828 22 16.2354 37q15.3125 15 34.3125 15t31.6875 -15q12.6885 -15 10.7646 -37q-1.9248 -22 -17.2363 -37q-15.3125 -15 -34.3125 -15t-31.6875 15q-12.6885 15 -9.76367 37zM407.501 638q0.924805 22 16.2363 37q15.3125 15 34.3125 15t31.6875 -15
q12.6885 -15 10.7637 -37q-1.92383 -22 -17.2354 -37q-15.3125 -15 -34.3125 -15t-31.6875 15q-12.6885 15 -9.76465 37zM491.582 504q12.8984 16 26.6865 25q13.7871 9 21.9619 11q19.4375 5 17.125 -10q-48.4258 -325 -64.5479 -395q-15.2598 -83 -38.5068 -143
q-23.248 -60 -68.6025 -115.5t-101.716 -82.5t-111.273 -26q-112.913 1 -148.878 70q-3.3877 7 5.46777 22.5t25.0361 29t30.6182 18.5t18.8252 -2q30.665 -61 131.577 -62q71.9131 -1 102.324 38q41.5479 52 67.5186 166q-108.32 -118 -211.347 -84
q-136.152 44 -22.957 515q3.0498 12 16.9053 27.5q13.8564 15.5 27.0996 24t21.875 10q8.63086 1.5 12.3242 -2q3.69434 -3.5 2.08203 -10.5q-70.3262 -301 -39.8223 -421q15.0146 -57 51.9648 -69q60.251 -20 98.8369 21q29.7119 31 61.3096 95q1.26172 3 3.6123 7
q17.9209 102 49.6377 316q1.96191 11 14.8623 27z" />
    <glyph glyph-name="Amacron" unicode="&#x100;" horiz-adv-x="650" 
d="M280.665 812q3.78711 9 13.9238 22t27.0986 24q16.9629 11 27.9629 11h218q15 0 6.33789 -19q-10.1865 -25 -34.0859 -41t-34.8994 -16h-218q-14 0 -6.33789 19zM66.8955 -35.5q-14.4814 -5.5 -19.4131 1t3.29297 20.5l392.974 720l33.0615 35q40.0605 35 42.874 10
l87.0264 -720q1.21289 -9 -10.1865 -25t-27.9922 -28.5q-16.5938 -12.5 -29.3125 -15q-12.7178 -2.5 -13.9307 6.5l-26.9717 229h-3h-273l-101.093 -184q-8.3125 -15 -24.0801 -29.5q-15.7686 -14.5 -30.249 -20zM488.965 274l-41.4375 338l-183.562 -338h225z" />
    <glyph glyph-name="amacron" unicode="&#x101;" horiz-adv-x="516" 
d="M190.665 605q3.78711 9 13.9238 22t27.0986 24q16.9629 11 27.9629 11h218q15 0 6.33789 -19q-10.1865 -25 -34.0859 -41t-34.8994 -16h-218q-14 0 -6.33789 19zM514.292 60.5q1.16895 -9.5 -10.7305 -25.5t-38.6494 -36q-26.749 -20 -55.7109 -31
q-56.9238 -22 -66.251 20q-4.5127 17 0.510742 63q-57.5107 -63 -112.172 -82q-54.6621 -19 -99.5254 -6q-139.501 40 -57.1367 330q27.3965 96 80.8193 158q91.2705 106 208.871 90q49.4756 -6 74.7646 -37q25.7109 31 51.2354 37q8.1748 2 12.3691 -1.5t2.49414 -11.5
q-94.9971 -423 -82.6328 -476q5.90137 -24 24.6885 -15q8.34961 4 24.4434 16.5q16.0928 12.5 28.7676 14.5t13.8447 -7.5zM357.207 151q13.9971 80 18.9209 102q43.1436 196 -78.457 212q-29.6504 4 -52.0879 -1q-30.5244 -6 -42.6621 -19q-27.7988 -32 -50.9707 -114
t-26.6816 -145q-4.8457 -124 75.1426 -147q61.4258 -18 99.0117 23q27.624 30 57.7842 89z" />
    <glyph glyph-name="Abreve" unicode="&#x102;" horiz-adv-x="650" 
d="M518.485 946q13.8994 16 27.1426 24.5t21.875 10q8.63086 1.5 12.3252 -2q3.69336 -3.5 2.08105 -10.5q-12.9854 -57 -46.5713 -98q-61.5596 -75 -140.385 -73q-112.737 3 -91.5039 120q1.96191 11 15.4053 27.5q13.4424 16.5 27.1865 25q13.7432 8.5 21.918 10.5
q18.4375 5 16.0381 -11q-17.1338 -93 73.6035 -96q16.9121 -1 29.2627 3q9.39941 16 13.5605 35q4.16211 19 18.0615 35zM66.8955 -35.5q-14.4814 -5.5 -19.4131 1t3.29297 20.5l392.974 720l33.0615 35q40.0605 35 42.874 10l87.0264 -720q1.21289 -9 -10.1865 -25
t-27.9922 -28.5q-16.5938 -12.5 -29.3125 -15q-12.7178 -2.5 -13.9307 6.5l-26.9717 229h-3h-273l-101.093 -184q-8.3125 -15 -24.0801 -29.5q-15.7686 -14.5 -30.249 -20zM488.965 274l-41.4375 338l-183.562 -338h225z" />
    <glyph glyph-name="abreve" unicode="&#x103;" horiz-adv-x="516" 
d="M428.485 739q13.8994 16 27.1426 24.5t21.875 10q8.63086 1.5 12.3252 -2q3.69336 -3.5 2.08105 -10.5q-12.9854 -57 -46.5713 -98q-61.5596 -75 -140.385 -73q-112.737 3 -91.5039 120q1.96191 11 15.4053 27.5q13.4424 16.5 27.1865 25q13.7432 8.5 21.918 10.5
q18.4375 5 16.0381 -11q-17.1338 -93 73.6035 -96q16.9121 -1 29.2627 3q9.39941 16 13.5605 35q4.16211 19 18.0615 35zM514.292 60.5q1.16895 -9.5 -10.7305 -25.5t-38.6494 -36q-26.749 -20 -55.7109 -31q-56.9238 -22 -66.251 20q-4.5127 17 0.510742 63
q-57.5107 -63 -112.172 -82q-54.6621 -19 -99.5254 -6q-139.501 40 -57.1367 330q27.3965 96 80.8193 158q91.2705 106 208.871 90q49.4756 -6 74.7646 -37q25.7109 31 51.2354 37q8.1748 2 12.3691 -1.5t2.49414 -11.5q-94.9971 -423 -82.6328 -476
q5.90137 -24 24.6885 -15q8.34961 4 24.4434 16.5q16.0928 12.5 28.7676 14.5t13.8447 -7.5zM357.207 151q13.9971 80 18.9209 102q43.1436 196 -78.457 212q-29.6504 4 -52.0879 -1q-30.5244 -6 -42.6621 -19q-27.7988 -32 -50.9707 -114t-26.6816 -145
q-4.8457 -124 75.1426 -147q61.4258 -18 99.0117 23q27.624 30 57.7842 89z" />
    <glyph glyph-name="Aogonek" unicode="&#x104;" horiz-adv-x="650" 
d="M66.8955 -35.5q-14.4814 -5.5 -19.4131 1t3.29297 20.5l392.974 720l33.0615 35q40.0605 35 42.874 10l87.0264 -720q1.21289 -9 -10.1865 -25t-27.9922 -28.5q-16.5938 -12.5 -29.3125 -15q-12.7178 -2.5 -13.9307 6.5l-26.9717 229h-3h-273l-101.093 -184
q-8.3125 -15 -24.0801 -29.5q-15.7686 -14.5 -30.249 -20zM488.965 274l-41.4375 338l-183.562 -338h225zM104.192 -135q-2.78711 -9 -13.3809 -21.5q-10.5928 -12.5 -27.0986 -24t-28.5938 -12.5q-52.2617 -3 -74.3623 13t-8.51465 57q24.8594 67 87.5449 132
q14.3125 15 30.5557 23.5t23.9375 5q7.69336 -3.5 2.46875 -17.5t-28.2793 -37.5q-23.0557 -23.5 -38.5547 -63.5q-5.48633 -17 9.09473 -27.5q14.582 -10.5 56.7568 -8.5q15.0879 1 8.42578 -18z" />
    <glyph glyph-name="aogonek" unicode="&#x105;" horiz-adv-x="516" 
d="M223.192 -140q-2.78711 -9 -13.3809 -21.5q-10.5928 -12.5 -27.0986 -24t-28.5938 -12.5q-52.2617 -3 -74.3623 13t-8.51465 57q24.8594 67 87.5449 132q14.3125 15 30.5557 23.5t23.9375 5q7.69336 -3.5 2.46875 -17.5t-28.2793 -37.5q-23.0557 -23.5 -38.5547 -63.5
q-5.48633 -17 9.09473 -27.5q14.582 -10.5 56.7568 -8.5q15.0879 1 8.42578 -18zM514.292 60.5q1.16895 -9.5 -10.7305 -25.5t-38.6494 -36q-26.749 -20 -55.7109 -31q-56.9238 -22 -66.251 20q-4.5127 17 0.510742 63q-57.5107 -63 -112.172 -82q-54.6621 -19 -99.5254 -6
q-139.501 40 -57.1367 330q27.3965 96 80.8193 158q91.2705 106 208.871 90q49.4756 -6 74.7646 -37q25.7109 31 51.2354 37q8.1748 2 12.3691 -1.5t2.49414 -11.5q-94.9971 -423 -82.6328 -476q5.90137 -24 24.6885 -15q8.34961 4 24.4434 16.5q16.0928 12.5 28.7676 14.5
t13.8447 -7.5zM357.207 151q13.9971 80 18.9209 102q43.1436 196 -78.457 212q-29.6504 4 -52.0879 -1q-30.5244 -6 -42.6621 -19q-27.7988 -32 -50.9707 -114t-26.6816 -145q-4.8457 -124 75.1426 -147q61.4258 -18 99.0117 23q27.624 30 57.7842 89z" />
    <glyph glyph-name="Cacute" unicode="&#x106;" horiz-adv-x="674" 
d="M625.754 966.5q12.7188 2.5 14.4307 -6.5q1.71289 -9 -9.68652 -25q-53.7344 -77 -114.195 -128q-16.2246 -14 -30.6182 -18.5t-17.7373 3t6.01172 23t34.1924 36.5t61.2979 72q10.3115 15 26.9482 28q16.6377 13 29.3564 15.5zM675.044 515q-13.3994 -16 -27.1436 -24.5
q-13.7432 -8.5 -21.918 -10.5q-18.4375 -5 -16.0381 11q7.67383 42 -6.28418 82.5t-46.5957 67.5q-32.6387 27 -74.4395 35q-41.7998 8 -82.7617 -3q-127.975 -34 -195.429 -245q-50.9072 -159 -3.17773 -265q26.752 -60 80.8223 -93.5q54.0693 -33.5 118.744 -31.5
t107.124 30t63.4727 74q7.22461 14 23.0361 29q15.8125 15 30.8809 21.5t21.0869 1q6.01953 -5.5 -0.205078 -19.5q-20.6738 -42 -56.8037 -83.5q-36.1289 -41.5 -81.7529 -71.5q-80.7236 -54 -160.442 -56.5q-79.7178 -2.5 -138.069 33.5t-86.8418 99
q-51.8535 116 4.27734 289q63.4053 199 204.589 304q112.26 83 217.598 64q48.2129 -9 83.5889 -39t51.4404 -75t6.69043 -95q-2.04883 -12 -15.4482 -28z" />
    <glyph glyph-name="cacute" unicode="&#x107;" horiz-adv-x="519" 
d="M530.754 759.5q12.7188 2.5 14.4307 -6.5q1.71289 -9 -9.68652 -25q-53.7344 -77 -114.195 -128q-16.2246 -14 -30.6182 -18.5t-17.7373 3t6.01172 23t34.1924 36.5t61.2979 72q10.3115 15 26.9482 28q16.6377 13 29.3564 15.5zM448.384 113q16.374 10 25.6992 8
t6.27539 -14q-10.4111 -39 -36.0781 -69.5q-25.668 -30.5 -51.6553 -47.5q-25.9863 -17 -48.5117 -23q-51.0488 -12 -85.4365 -5q-229.988 23 -165.473 269q56.6299 213 188.927 285q51.4492 28 97.624 30q161.524 6 153.618 -153q-0.875 -10 -12.7744 -26t-25.7295 -25.5
q-13.8311 -9.5 -23.0938 -12.5q-19.6123 -7 -19.2998 8q6.06934 138 -133.455 132q-44.1748 -2 -63.5742 -18q-47.5859 -41 -79.626 -161.5q-32.0391 -120.5 5.21289 -180.5q37.2529 -60 142.29 -71q44.6504 -4 71.4375 5q3.6123 7 6.07422 18t16.8184 26.5
q14.3555 15.5 30.7305 25.5z" />
    <glyph glyph-name="Ccircumflex" unicode="&#x108;" horiz-adv-x="674" 
d="M392.396 819.5q-17.0059 -11.5 -26.0059 -11.5t-11.5625 5q-4.03809 11 12.7988 32l98.8457 124l24.2734 26q31.5361 29 42.7002 8l60.8916 -127q3.3877 -7 -5.96777 -22.5t-25.5801 -29.5t-30.6182 -18.5t-17.7812 2.5l-45.5156 97l-47.0732 -58
q-12.3994 -16 -29.4053 -27.5zM675.044 515q-13.3994 -16 -27.1436 -24.5q-13.7432 -8.5 -21.918 -10.5q-18.4375 -5 -16.0381 11q7.67383 42 -6.28418 82.5t-46.5957 67.5q-32.6387 27 -74.4395 35q-41.7998 8 -82.7617 -3q-127.975 -34 -195.429 -245
q-50.9072 -159 -3.17773 -265q26.752 -60 80.8223 -93.5q54.0693 -33.5 118.744 -31.5t107.124 30t63.4727 74q7.22461 14 23.0361 29q15.8125 15 30.8809 21.5t21.0869 1q6.01953 -5.5 -0.205078 -19.5q-20.6738 -42 -56.8037 -83.5q-36.1289 -41.5 -81.7529 -71.5
q-80.7236 -54 -160.442 -56.5q-79.7178 -2.5 -138.069 33.5t-86.8418 99q-51.8535 116 4.27734 289q63.4053 199 204.589 304q112.26 83 217.598 64q48.2129 -9 83.5889 -39t51.4404 -75t6.69043 -95q-2.04883 -12 -15.4482 -28z" />
    <glyph glyph-name="ccircumflex" unicode="&#x109;" horiz-adv-x="519" 
d="M297.396 612.5q-17.0059 -11.5 -26.0059 -11.5t-11.5625 5q-4.03809 11 12.7988 32l98.8457 124l24.2734 26q31.5361 29 42.7002 8l60.8916 -127q3.3877 -7 -5.96777 -22.5t-25.5801 -29.5t-30.6182 -18.5t-17.7812 2.5l-45.5156 97l-47.0732 -58
q-12.3994 -16 -29.4053 -27.5zM448.384 113q16.374 10 25.6992 8t6.27539 -14q-10.4111 -39 -36.0781 -69.5q-25.668 -30.5 -51.6553 -47.5q-25.9863 -17 -48.5117 -23q-51.0488 -12 -85.4365 -5q-229.988 23 -165.473 269q56.6299 213 188.927 285q51.4492 28 97.624 30
q161.524 6 153.618 -153q-0.875 -10 -12.7744 -26t-25.7295 -25.5q-13.8311 -9.5 -23.0938 -12.5q-19.6123 -7 -19.2998 8q6.06934 138 -133.455 132q-44.1748 -2 -63.5742 -18q-47.5859 -41 -79.626 -161.5q-32.0391 -120.5 5.21289 -180.5q37.2529 -60 142.29 -71
q44.6504 -4 71.4375 5q3.6123 7 6.07422 18t16.8184 26.5q14.3555 15.5 30.7305 25.5z" />
    <glyph glyph-name="Cdotaccent" unicode="&#x10a;" horiz-adv-x="674" 
d="M473.521 921q58.7383 -3 44.1836 -66.5q-14.5537 -63.5 -73.2041 -59.5q-52.6494 4 -38.0518 68q14.335 61 67.0723 58zM675.044 515q-13.3994 -16 -27.1436 -24.5q-13.7432 -8.5 -21.918 -10.5q-18.4375 -5 -16.0381 11q7.67383 42 -6.28418 82.5t-46.5957 67.5
q-32.6387 27 -74.4395 35q-41.7998 8 -82.7617 -3q-127.975 -34 -195.429 -245q-50.9072 -159 -3.17773 -265q26.752 -60 80.8223 -93.5q54.0693 -33.5 118.744 -31.5t107.124 30t63.4727 74q7.22461 14 23.0361 29q15.8125 15 30.8809 21.5t21.0869 1
q6.01953 -5.5 -0.205078 -19.5q-20.6738 -42 -56.8037 -83.5q-36.1289 -41.5 -81.7529 -71.5q-80.7236 -54 -160.442 -56.5q-79.7178 -2.5 -138.069 33.5t-86.8418 99q-51.8535 116 4.27734 289q63.4053 199 204.589 304q112.26 83 217.598 64q48.2129 -9 83.5889 -39
t51.4404 -75t6.69043 -95q-2.04883 -12 -15.4482 -28z" />
    <glyph glyph-name="cdotaccent" unicode="&#x10b;" horiz-adv-x="519" 
d="M378.521 714q58.7383 -3 44.1836 -66.5q-14.5537 -63.5 -73.2041 -59.5q-52.6494 4 -38.0518 68q14.335 61 67.0723 58zM448.384 113q16.374 10 25.6992 8t6.27539 -14q-10.4111 -39 -36.0781 -69.5q-25.668 -30.5 -51.6553 -47.5q-25.9863 -17 -48.5117 -23
q-51.0488 -12 -85.4365 -5q-229.988 23 -165.473 269q56.6299 213 188.927 285q51.4492 28 97.624 30q161.524 6 153.618 -153q-0.875 -10 -12.7744 -26t-25.7295 -25.5q-13.8311 -9.5 -23.0938 -12.5q-19.6123 -7 -19.2998 8q6.06934 138 -133.455 132
q-44.1748 -2 -63.5742 -18q-47.5859 -41 -79.626 -161.5q-32.0391 -120.5 5.21289 -180.5q37.2529 -60 142.29 -71q44.6504 -4 71.4375 5q3.6123 7 6.07422 18t16.8184 26.5q14.3555 15.5 30.7305 25.5z" />
    <glyph glyph-name="Ccaron" unicode="&#x10c;" horiz-adv-x="674" 
d="M381.983 992q15.7246 14 30.1182 18.5t18.7812 -2.5l51.9922 -103l59.1221 70q13.3994 16 29.8613 27t24.918 10.5q8.45703 -0.5 9.93164 -6.5q2.95117 -12 -14.8857 -33l-109.458 -131q-51.4229 -62 -64.8857 -33l-66.543 131q-3.3877 7 5.96777 22.5
q9.35645 15.5 25.0801 29.5zM675.044 515q-13.3994 -16 -27.1436 -24.5q-13.7432 -8.5 -21.918 -10.5q-18.4375 -5 -16.0381 11q7.67383 42 -6.28418 82.5t-46.5957 67.5q-32.6387 27 -74.4395 35q-41.7998 8 -82.7617 -3q-127.975 -34 -195.429 -245
q-50.9072 -159 -3.17773 -265q26.752 -60 80.8223 -93.5q54.0693 -33.5 118.744 -31.5t107.124 30t63.4727 74q7.22461 14 23.0361 29q15.8125 15 30.8809 21.5t21.0869 1q6.01953 -5.5 -0.205078 -19.5q-20.6738 -42 -56.8037 -83.5q-36.1289 -41.5 -81.7529 -71.5
q-80.7236 -54 -160.442 -56.5q-79.7178 -2.5 -138.069 33.5t-86.8418 99q-51.8535 116 4.27734 289q63.4053 199 204.589 304q112.26 83 217.598 64q48.2129 -9 83.5889 -39t51.4404 -75t6.69043 -95q-2.04883 -12 -15.4482 -28z" />
    <glyph glyph-name="ccaron" unicode="&#x10d;" horiz-adv-x="519" 
d="M286.983 785q15.7246 14 30.1182 18.5t18.7812 -2.5l51.9922 -103l59.1221 70q13.3994 16 29.8613 27t24.918 10.5q8.45703 -0.5 9.93164 -6.5q2.95117 -12 -14.8857 -33l-109.458 -131q-51.4229 -62 -64.8857 -33l-66.543 131q-3.3877 7 5.96777 22.5
q9.35645 15.5 25.0801 29.5zM448.384 113q16.374 10 25.6992 8t6.27539 -14q-10.4111 -39 -36.0781 -69.5q-25.668 -30.5 -51.6553 -47.5q-25.9863 -17 -48.5117 -23q-51.0488 -12 -85.4365 -5q-229.988 23 -165.473 269q56.6299 213 188.927 285q51.4492 28 97.624 30
q161.524 6 153.618 -153q-0.875 -10 -12.7744 -26t-25.7295 -25.5q-13.8311 -9.5 -23.0938 -12.5q-19.6123 -7 -19.2998 8q6.06934 138 -133.455 132q-44.1748 -2 -63.5742 -18q-47.5859 -41 -79.626 -161.5q-32.0391 -120.5 5.21289 -180.5q37.2529 -60 142.29 -71
q44.6504 -4 71.4375 5q3.6123 7 6.07422 18t16.8184 26.5q14.3555 15.5 30.7305 25.5z" />
    <glyph glyph-name="Dcaron" unicode="&#x10e;" horiz-adv-x="643" 
d="M370.983 992q15.7246 14 30.1182 18.5t18.7812 -2.5l51.9922 -103l59.1221 70q13.3994 16 29.8613 27t24.918 10.5q8.45703 -0.5 9.93164 -6.5q2.95117 -12 -14.8857 -33l-109.458 -131q-51.4229 -62 -64.8857 -33l-66.543 131q-3.3877 7 5.96777 22.5
q9.35645 15.5 25.0801 29.5zM48.7256 -26l132.974 720q9.32422 38 41.8984 56q12.6123 7 27.6992 8q456.362 27 409.552 -371q-18.1201 -150 -105.76 -254.5t-210.964 -142.5q-123.323 -38 -287.448 -28q-10 0 -7.95117 12zM131.236 37q145.3 -8 240.968 22.5t134.866 78.5
q57.0342 69 73.0547 195q20.2188 174 -61.1279 261.5t-268.172 89.5z" />
    <glyph glyph-name="dcaron" unicode="&#x10f;" horiz-adv-x="491" 
d="M512.102 801.5q13.3564 15.5 27.1436 24.5t21.9619 11q18.4375 5 16.0381 -11l-137.971 -800q-1.96289 -11 -15.3623 -27t-27.1865 -25t-21.9619 -11q-18.4375 -5 -16.0381 11l13.9102 79q-56.5107 -63 -112.26 -83t-100.612 -7q-138.414 41 -57.1367 330
q27.3965 96 80.8193 158q92.2705 106 208.871 90q36.5635 -5 60.0762 -22l44.3027 255q2.0498 12 15.4053 27.5zM423.35 347q-3.6416 107 -97.6787 118q-28.7383 3 -51.0879 -1q-32.5244 -6 -43.6621 -19q-27.8857 -33 -48.2705 -106q-75.2656 -266 45.7607 -300
q61.4258 -18 99.0117 23q28.7109 31 60.1338 93q1.2627 3 3.52539 6zM640.277 699.5q16.1807 13.5 30.0303 17.5t16.1504 -4q41.9795 -126 -87.6914 -248q-15.3115 -15 -30.8799 -21.5q-15.5693 -6.5 -21.0879 -1t1.74902 20q7.26855 14.5 23.5801 29.5
q16.3994 16 27.6924 36.5t15.5488 52q4.25488 31.5 -8.68359 66.5q-2.30078 8 7.55469 23.5t26.0371 29z" />
    <glyph glyph-name="Dcroat" unicode="&#x110;" horiz-adv-x="713" 
d="M55 331q3 9 12 22t25 24t27 11h268q15 0 8 -19q-8 -25 -30 -41q-23 -16 -34 -16h-268q-14 0 -8 19zM119 -26l70 720q6 38 37 56q12 7 27 8q454 27 442 -371q-5 -150 -83.5 -254.5t-198.5 -142.5t-285 -28q-10 0 -9 12zM196 37q146 -8 239 22.5t128 78.5q51 69 56 195
q5 174 -84 261.5t-276 89.5z" />
    <glyph glyph-name="dcroat" unicode="&#x111;" horiz-adv-x="475" 
d="M261 635q3 9 12 22t25 24t27 11l232 -2q15 0 8 -19q-8 -25 -30 -41q-23 -16 -34 -16l-232 2q-14 0 -8 19zM442 801.5q12 15.5 25 24.5t21 11q18 5 17 -11l-68 -800q-1 -11 -13 -27t-25 -25t-21 -11q-18 -5 -17 11l7 79q-51 -63 -105 -83t-100 -7q-142 41 -86 330
q19 96 67 158q83 106 201 90q37 -5 62 -22l22 255q1 12 13 27.5zM393 347q-13 107 -108 118q-29 3 -51 -1q-32 -6 -42 -19q-25 -33 -39 -106q-52 -266 72 -300q63 -18 97 23q26 31 52 93q1 3 3 6z" />
    <glyph glyph-name="Emacron" unicode="&#x112;" horiz-adv-x="576" 
d="M276.665 812q3.78711 9 13.9238 22t27.0986 24q16.9629 11 27.9629 11h218q15 0 6.33789 -19q-10.1865 -25 -34.0859 -41t-34.8994 -16h-218q-14 0 -6.33789 19zM647.297 758q10 0 9.12598 -10q-0.961914 -11 -13.8613 -27t-29.9053 -27.5t-28.0059 -11.5h-337
l-48.4902 -280h341q15 0 6.33789 -19q-10.1865 -25 -34.0859 -41t-34.8994 -16h-292l-49.1895 -288h385q15 0 6.33887 -19q-10.1865 -25 -34.0859 -41t-34.8994 -16h-393q-7.08789 -1 -10.2812 2.5q-3.19434 3.5 -1.49512 11.5l123.799 718q1.96289 11 15.4492 28
q24.5361 29 49.0615 35q5.08691 1 7.08691 1h4h394z" />
    <glyph glyph-name="emacron" unicode="&#x113;" horiz-adv-x="526" 
d="M238.665 605q3.78711 9 13.9238 22t27.0986 24q16.9629 11 27.9629 11h218q15 0 6.33789 -19q-10.1865 -25 -34.0859 -41t-34.8994 -16h-218q-14 0 -6.33789 19zM163.467 234q-20.1807 -185 143.856 -196q34.7383 -3 63.1748 2q36.5254 6 41.2246 14
q9.3125 15 26.0371 29t30.1182 18.5t17.6934 -3.5q5.86328 -13 -23.1104 -47t-58.1797 -53.5q-29.2051 -19.5 -55.8174 -26.5q-59.3994 -16 -105.787 -9q-195.863 13 -155.222 249q12.3848 73 33.0635 126.5q20.6797 53.5 59.79 100.5q89.4463 108 208.009 103
q188.388 -7 136.047 -251q-12.498 -40 -44.9854 -57q-12.6123 -7 -26.5244 -6zM177.026 309q7.1748 2 11.1748 2l265.476 -6q10.5566 155 -129.006 160q-67.7383 3 -93.5371 -29q-33.498 -40 -54.1074 -127z" />
    <glyph glyph-name="Eogonek" unicode="&#x118;" horiz-adv-x="576" 
d="M353.192 -129q-2.78711 -9 -13.3809 -21.5q-10.5928 -12.5 -27.0986 -24t-28.5938 -12.5q-52.2617 -3 -74.3623 13t-8.51465 57q24.8594 67 87.5449 132q14.3125 15 30.5557 23.5t23.9375 5q7.69336 -3.5 2.46875 -17.5t-28.2793 -37.5q-23.0557 -23.5 -38.5547 -63.5
q-5.48633 -17 9.09473 -27.5q14.582 -10.5 56.7568 -8.5q15.0879 1 8.42578 -18zM647.297 758q10 0 9.12598 -10q-0.961914 -11 -13.8613 -27t-29.9053 -27.5t-28.0059 -11.5h-337l-48.4902 -280h341q15 0 6.33789 -19q-10.1865 -25 -34.0859 -41t-34.8994 -16h-292
l-49.1895 -288h385q15 0 6.33887 -19q-10.1865 -25 -34.0859 -41t-34.8994 -16h-393q-7.08789 -1 -10.2812 2.5q-3.19434 3.5 -1.49512 11.5l123.799 718q1.96289 11 15.4492 28q24.5361 29 49.0615 35q5.08691 1 7.08691 1h4h394z" />
    <glyph glyph-name="eogonek" unicode="&#x119;" horiz-adv-x="526" 
d="M316.192 -140q-2.78711 -9 -13.3809 -21.5q-10.5928 -12.5 -27.0986 -24t-28.5938 -12.5q-52.2617 -3 -74.3623 13t-8.51465 57q24.8594 67 87.5449 132q14.3125 15 30.5557 23.5t23.9375 5q7.69336 -3.5 2.46875 -17.5t-28.2793 -37.5q-23.0557 -23.5 -38.5547 -63.5
q-5.48633 -17 9.09473 -27.5q14.582 -10.5 56.7568 -8.5q15.0879 1 8.42578 -18zM163.467 234q-20.1807 -185 143.856 -196q34.7383 -3 63.1748 2q36.5254 6 41.2246 14q9.3125 15 26.0371 29t30.1182 18.5t17.6934 -3.5q5.86328 -13 -23.1104 -47t-58.1797 -53.5
q-29.2051 -19.5 -55.8174 -26.5q-59.3994 -16 -105.787 -9q-195.863 13 -155.222 249q12.3848 73 33.0635 126.5q20.6797 53.5 59.79 100.5q89.4463 108 208.009 103q188.388 -7 136.047 -251q-12.498 -40 -44.9854 -57q-12.6123 -7 -26.5244 -6zM177.026 309
q7.1748 2 11.1748 2l265.476 -6q10.5566 155 -129.006 160q-67.7383 3 -93.5371 -29q-33.498 -40 -54.1074 -127z" />
    <glyph glyph-name="Ecaron" unicode="&#x11a;" horiz-adv-x="576" 
d="M341.983 992q15.7246 14 30.1182 18.5t18.7812 -2.5l51.9922 -103l59.1221 70q13.3994 16 29.8613 27t24.918 10.5q8.45703 -0.5 9.93164 -6.5q2.95117 -12 -14.8857 -33l-109.458 -131q-51.4229 -62 -64.8857 -33l-66.543 131q-3.3877 7 5.96777 22.5
q9.35645 15.5 25.0801 29.5zM647.297 758q10 0 9.12598 -10q-0.961914 -11 -13.8613 -27t-29.9053 -27.5t-28.0059 -11.5h-337l-48.4902 -280h341q15 0 6.33789 -19q-10.1865 -25 -34.0859 -41t-34.8994 -16h-292l-49.1895 -288h385q15 0 6.33887 -19
q-10.1865 -25 -34.0859 -41t-34.8994 -16h-393q-7.08789 -1 -10.2812 2.5q-3.19434 3.5 -1.49512 11.5l123.799 718q1.96289 11 15.4492 28q24.5361 29 49.0615 35q5.08691 1 7.08691 1h4h394z" />
    <glyph glyph-name="ecaron" unicode="&#x11b;" horiz-adv-x="526" 
d="M303.983 785q15.7246 14 30.1182 18.5t18.7812 -2.5l51.9922 -103l59.1221 70q13.3994 16 29.8613 27t24.918 10.5q8.45703 -0.5 9.93164 -6.5q2.95117 -12 -14.8857 -33l-109.458 -131q-51.4229 -62 -64.8857 -33l-66.543 131q-3.3877 7 5.96777 22.5
q9.35645 15.5 25.0801 29.5zM163.467 234q-20.1807 -185 143.856 -196q34.7383 -3 63.1748 2q36.5254 6 41.2246 14q9.3125 15 26.0371 29t30.1182 18.5t17.6934 -3.5q5.86328 -13 -23.1104 -47t-58.1797 -53.5q-29.2051 -19.5 -55.8174 -26.5q-59.3994 -16 -105.787 -9
q-195.863 13 -155.222 249q12.3848 73 33.0635 126.5q20.6797 53.5 59.79 100.5q89.4463 108 208.009 103q188.388 -7 136.047 -251q-12.498 -40 -44.9854 -57q-12.6123 -7 -26.5244 -6zM177.026 309q7.1748 2 11.1748 2l265.476 -6q10.5566 155 -129.006 160
q-67.7383 3 -93.5371 -29q-33.498 -40 -54.1074 -127z" />
    <glyph glyph-name="Gcircumflex" unicode="&#x11c;" horiz-adv-x="637" 
d="M398.396 819.5q-17.0059 -11.5 -26.0059 -11.5t-11.5625 5q-4.03809 11 12.7988 32l98.8457 124l24.2734 26q31.5361 29 42.7002 8l60.8916 -127q3.3877 -7 -5.96777 -22.5t-25.5801 -29.5t-30.6182 -18.5t-17.7812 2.5l-45.5156 97l-47.0732 -58
q-12.3994 -16 -29.4053 -27.5zM559.16 59q-105.396 -96 -225.483 -97q-70 0 -126.939 35q-56.9385 35 -84.4287 98q-30.877 70 -22.918 161q5.16016 59 27.1953 128q60.9678 194 193.064 298q95.5596 75 190.56 75q67 0 111.026 -34q80.5771 -62 71.918 -161
q-0.787109 -9 -2.74902 -20t-15.3613 -27t-27.1436 -24.5q-13.7432 -8.5 -22.418 -10.5t-12.9121 1q-4.23828 3 -2.58203 10.5t2.26855 14.5q3.23535 37 -10.8965 75.5q-14.1328 38.5 -49.7715 65.5q-45.0264 34 -103.026 34q-68 0 -118.498 -40q-22.5752 -18 -47.5488 -52
q-46.6846 -65 -72.0947 -144q-25.4092 -79 -30.2197 -134q-7.34668 -84 20.2305 -146q55.8916 -127 194.892 -127q68 0 119.062 35q36.0996 24 57.0352 69q1.2627 3 4.52441 6l27.207 151l-236.737 3q-15 0 -6.33789 19q10.1865 25 34.0859 41t34.8994 16l247.737 -3
q11 0 8.9502 -12l-61.4746 -337q-1.96289 -11 -15.4053 -27.5q-13.4434 -16.5 -27.1865 -25q-13.7441 -8.5 -21.9189 -10.5q-18.4375 -5 -16.0381 11z" />
    <glyph glyph-name="gcircumflex" unicode="&#x11d;" horiz-adv-x="508" 
d="M318.396 612.5q-17.0059 -11.5 -26.0059 -11.5t-11.5625 5q-4.03809 11 12.7988 32l98.8457 124l24.2734 26q31.5361 29 42.7002 8l60.8916 -127q3.3877 -7 -5.96777 -22.5t-25.5801 -29.5t-30.6182 -18.5t-17.7812 2.5l-45.5156 97l-47.0732 -58
q-12.3994 -16 -29.4053 -27.5zM502.519 509q22.1865 25 37.5371 29q25.6123 7 23.2998 -8q-48.4258 -325 -64.5479 -395q-15.2598 -83 -38.5068 -143q-23.248 -60 -68.6025 -115.5t-101.716 -82.5t-111.273 -26q-112.913 1 -148.878 70q-3.3877 7 5.46777 22.5t25.0361 29
t30.6182 18.5t18.8252 -2q30.665 -61 131.577 -62q71.9131 -1 102.324 38q42.6348 53 68.9561 171q-57.5977 -64 -112.804 -83.5q-55.2051 -19.5 -100.068 -6.5q-139.501 40 -57.1367 330q27.3965 96 80.8193 158q91.2705 106 208.871 90q44.4756 -6 70.2012 -32z
M433.432 165q13.7344 77 12.7344 77q-3.7373 3 -2.03809 11q43.1436 196 -78.457 212q-29.6504 4 -52.0879 -1q-31.5244 -6 -42.6621 -19q-27.7988 -32 -50.9707 -114t-26.6816 -145q-4.8457 -124 75.1426 -147q61.4258 -18 99.0117 23q28.7109 31 60.1338 93
q2.4375 5 5.875 10z" />
    <glyph glyph-name="Gbreve" unicode="&#x11e;" horiz-adv-x="637" 
d="M562.485 946q13.8994 16 27.1426 24.5t21.875 10q8.63086 1.5 12.3252 -2q3.69336 -3.5 2.08105 -10.5q-12.9854 -57 -46.5713 -98q-61.5596 -75 -140.385 -73q-112.737 3 -91.5039 120q1.96191 11 15.4053 27.5q13.4424 16.5 27.1865 25q13.7432 8.5 21.918 10.5
q18.4375 5 16.0381 -11q-17.1338 -93 73.6035 -96q16.9121 -1 29.2627 3q9.39941 16 13.5605 35q4.16211 19 18.0615 35zM559.16 59q-105.396 -96 -225.483 -97q-70 0 -126.939 35q-56.9385 35 -84.4287 98q-30.877 70 -22.918 161q5.16016 59 27.1953 128
q60.9678 194 193.064 298q95.5596 75 190.56 75q67 0 111.026 -34q80.5771 -62 71.918 -161q-0.787109 -9 -2.74902 -20t-15.3613 -27t-27.1436 -24.5q-13.7432 -8.5 -22.418 -10.5t-12.9121 1q-4.23828 3 -2.58203 10.5t2.26855 14.5q3.23535 37 -10.8965 75.5
q-14.1328 38.5 -49.7715 65.5q-45.0264 34 -103.026 34q-68 0 -118.498 -40q-22.5752 -18 -47.5488 -52q-46.6846 -65 -72.0947 -144q-25.4092 -79 -30.2197 -134q-7.34668 -84 20.2305 -146q55.8916 -127 194.892 -127q68 0 119.062 35q36.0996 24 57.0352 69
q1.2627 3 4.52441 6l27.207 151l-236.737 3q-15 0 -6.33789 19q10.1865 25 34.0859 41t34.8994 16l247.737 -3q11 0 8.9502 -12l-61.4746 -337q-1.96289 -11 -15.4053 -27.5q-13.4434 -16.5 -27.1865 -25q-13.7441 -8.5 -21.9189 -10.5q-18.4375 -5 -16.0381 11z" />
    <glyph glyph-name="gbreve" unicode="&#x11f;" horiz-adv-x="508" 
d="M436.485 739q13.8994 16 27.1426 24.5t21.875 10q8.63086 1.5 12.3252 -2q3.69336 -3.5 2.08105 -10.5q-12.9854 -57 -46.5713 -98q-61.5596 -75 -140.385 -73q-112.737 3 -91.5039 120q1.96191 11 15.4053 27.5q13.4424 16.5 27.1865 25q13.7432 8.5 21.918 10.5
q18.4375 5 16.0381 -11q-17.1338 -93 73.6035 -96q16.9121 -1 29.2627 3q9.39941 16 13.5605 35q4.16211 19 18.0615 35zM502.519 509q22.1865 25 37.5371 29q25.6123 7 23.2998 -8q-48.4258 -325 -64.5479 -395q-15.2598 -83 -38.5068 -143q-23.248 -60 -68.6025 -115.5
t-101.716 -82.5t-111.273 -26q-112.913 1 -148.878 70q-3.3877 7 5.46777 22.5t25.0361 29t30.6182 18.5t18.8252 -2q30.665 -61 131.577 -62q71.9131 -1 102.324 38q42.6348 53 68.9561 171q-57.5977 -64 -112.804 -83.5q-55.2051 -19.5 -100.068 -6.5
q-139.501 40 -57.1367 330q27.3965 96 80.8193 158q91.2705 106 208.871 90q44.4756 -6 70.2012 -32zM433.432 165q13.7344 77 12.7344 77q-3.7373 3 -2.03809 11q43.1436 196 -78.457 212q-29.6504 4 -52.0879 -1q-31.5244 -6 -42.6621 -19q-27.7988 -32 -50.9707 -114
t-26.6816 -145q-4.8457 -124 75.1426 -147q61.4258 -18 99.0117 23q28.7109 31 60.1338 93q2.4375 5 5.875 10z" />
    <glyph glyph-name="Gdotaccent" unicode="&#x120;" horiz-adv-x="637" 
d="M481.521 921q58.7383 -3 44.1836 -66.5q-14.5537 -63.5 -73.2041 -59.5q-52.6494 4 -38.0518 68q14.335 61 67.0723 58zM559.16 59q-105.396 -96 -225.483 -97q-70 0 -126.939 35q-56.9385 35 -84.4287 98q-30.877 70 -22.918 161q5.16016 59 27.1953 128
q60.9678 194 193.064 298q95.5596 75 190.56 75q67 0 111.026 -34q80.5771 -62 71.918 -161q-0.787109 -9 -2.74902 -20t-15.3613 -27t-27.1436 -24.5q-13.7432 -8.5 -22.418 -10.5t-12.9121 1q-4.23828 3 -2.58203 10.5t2.26855 14.5q3.23535 37 -10.8965 75.5
q-14.1328 38.5 -49.7715 65.5q-45.0264 34 -103.026 34q-68 0 -118.498 -40q-22.5752 -18 -47.5488 -52q-46.6846 -65 -72.0947 -144q-25.4092 -79 -30.2197 -134q-7.34668 -84 20.2305 -146q55.8916 -127 194.892 -127q68 0 119.062 35q36.0996 24 57.0352 69
q1.2627 3 4.52441 6l27.207 151l-236.737 3q-15 0 -6.33789 19q10.1865 25 34.0859 41t34.8994 16l247.737 -3q11 0 8.9502 -12l-61.4746 -337q-1.96289 -11 -15.4053 -27.5q-13.4434 -16.5 -27.1865 -25q-13.7441 -8.5 -21.9189 -10.5q-18.4375 -5 -16.0381 11z" />
    <glyph glyph-name="gdotaccent" unicode="&#x121;" horiz-adv-x="508" 
d="M355.521 714q58.7383 -3 44.1836 -66.5q-14.5537 -63.5 -73.2041 -59.5q-52.6494 4 -38.0518 68q14.335 61 67.0723 58zM502.519 509q22.1865 25 37.5371 29q25.6123 7 23.2998 -8q-48.4258 -325 -64.5479 -395q-15.2598 -83 -38.5068 -143q-23.248 -60 -68.6025 -115.5
t-101.716 -82.5t-111.273 -26q-112.913 1 -148.878 70q-3.3877 7 5.46777 22.5t25.0361 29t30.6182 18.5t18.8252 -2q30.665 -61 131.577 -62q71.9131 -1 102.324 38q42.6348 53 68.9561 171q-57.5977 -64 -112.804 -83.5q-55.2051 -19.5 -100.068 -6.5
q-139.501 40 -57.1367 330q27.3965 96 80.8193 158q91.2705 106 208.871 90q44.4756 -6 70.2012 -32zM433.432 165q13.7344 77 12.7344 77q-3.7373 3 -2.03809 11q43.1436 196 -78.457 212q-29.6504 4 -52.0879 -1q-31.5244 -6 -42.6621 -19q-27.7988 -32 -50.9707 -114
t-26.6816 -145q-4.8457 -124 75.1426 -147q61.4258 -18 99.0117 23q28.7109 31 60.1338 93q2.4375 5 5.875 10z" />
    <glyph glyph-name="uni0122" unicode="&#x122;" horiz-adv-x="637" 
d="M335.424 -49q16.6377 13 29.3564 15.5q12.7178 2.5 14.9307 -6.5q20.1553 -124 -88.5039 -223q-16.2246 -14 -31.249 -20q-15.0254 -6 -20 0q-4.97559 6 2.79297 20.5q7.76758 14.5 20.8174 26.5t21.3613 27q26.1982 48 13.3594 107q-1.21289 9 9.64258 24.5
t27.4922 28.5zM559.16 59q-105.396 -96 -225.483 -97q-70 0 -126.939 35q-56.9385 35 -84.4287 98q-30.877 70 -22.918 161q5.16016 59 27.1953 128q60.9678 194 193.064 298q95.5596 75 190.56 75q67 0 111.026 -34q80.5771 -62 71.918 -161q-0.787109 -9 -2.74902 -20
t-15.3613 -27t-27.1436 -24.5q-13.7432 -8.5 -22.418 -10.5t-12.9121 1q-4.23828 3 -2.58203 10.5t2.26855 14.5q3.23535 37 -10.8965 75.5q-14.1328 38.5 -49.7715 65.5q-45.0264 34 -103.026 34q-68 0 -118.498 -40q-22.5752 -18 -47.5488 -52q-46.6846 -65 -72.0947 -144
q-25.4092 -79 -30.2197 -134q-7.34668 -84 20.2305 -146q55.8916 -127 194.892 -127q68 0 119.062 35q36.0996 24 57.0352 69q1.2627 3 4.52441 6l27.207 151l-236.737 3q-15 0 -6.33789 19q10.1865 25 34.0859 41t34.8994 16l247.737 -3q11 0 8.9502 -12l-61.4746 -337
q-1.96289 -11 -15.4053 -27.5q-13.4434 -16.5 -27.1865 -25q-13.7441 -8.5 -21.9189 -10.5q-18.4375 -5 -16.0381 11z" />
    <glyph glyph-name="uni0123" unicode="&#x123;" horiz-adv-x="508" 
d="M502.519 509q22.1865 25 37.5371 29q25.6123 7 23.2998 -8q-48.4258 -325 -64.5479 -395q-15.2598 -83 -38.5068 -143q-23.248 -60 -68.6025 -115.5t-101.716 -82.5t-111.273 -26q-112.913 1 -148.878 70q-3.3877 7 5.46777 22.5t25.0361 29t30.6182 18.5t18.8252 -2
q30.665 -61 131.577 -62q71.9131 -1 102.324 38q42.6348 53 68.9561 171q-57.5977 -64 -112.804 -83.5q-55.2051 -19.5 -100.068 -6.5q-139.501 40 -57.1367 330q27.3965 96 80.8193 158q91.2705 106 208.871 90q44.4756 -6 70.2012 -32zM433.432 165q13.7344 77 12.7344 77
q-3.7373 3 -2.03809 11q43.1436 196 -78.457 212q-29.6504 4 -52.0879 -1q-31.5244 -6 -42.6621 -19q-27.7988 -32 -50.9707 -114t-26.6816 -145q-4.8457 -124 75.1426 -147q61.4258 -18 99.0117 23q28.7109 31 60.1338 93q2.4375 5 5.875 10zM299.716 535.5
q-16.1816 -13.5 -30.0312 -17.5q-13.8506 -4 -16.1504 4q-41.9717 126 87.7061 248q15.3125 15 30.8818 21.5t21.0879 1t-1.75098 -20q-7.26855 -14.5 -23.582 -29.5q-16.4004 -16 -27.6943 -36.5t-15.5518 -52q-4.25684 -31.5 8.67969 -66.5q2.2998 -8 -7.55664 -23.5
t-26.0381 -29z" />
    <glyph glyph-name="hcircumflex" unicode="&#x125;" horiz-adv-x="513" 
d="M332 846h63l63 -149h-42l-56 106l-80 -106h-41zM398 397q-22 39 -85 39t-102 -40q-55 -57 -65 -172l-20 -224h-66l60 683h66l-25 -283q61 85 170 85q59 0 97 -26q63 -48 51 -188l-24 -271h-66l24 275q7 83 -15 122z" />
    <glyph glyph-name="Hbar" unicode="&#x126;" horiz-adv-x="675" 
d="M36 539q3 9 12 21q9 13 25 24t27 12h636q15 0 8 -20q-8 -25 -30 -41q-23 -16 -34 -16h-636q-14 1 -8 20zM218 721.5q12 15.5 25 24.5t21 11q18 5 17 -11l-29 -346h318l25 294q1 11 13 27t25 25t21 11q18 5 17 -11l-61 -720q-1 -11 -13 -27t-25 -25t-21 -11q-18 -5 -17 11
l30 350h-319l-25 -298q-1 -11 -13 -27t-25 -25t-21 -11q-18 -5 -17 11l61 720q1 12 13 27.5z" />
    <glyph glyph-name="hbar" unicode="&#x127;" horiz-adv-x="518" 
d="M18 636q3 9 12 21q10 13 26 24t26 11l252 -8q15 0 8 -20q-9 -25 -31 -41q-23 -16 -33 -15l-252 8q-15 1 -8 20zM134 806q12 16 25 24.5t21 10.5q18 5 17 -11l-34 -375q31 37 72.5 61.5t83.5 24.5q171 2 146 -235l-24 -280q-1 -11 -13 -27t-25 -25t-21 -11q-18 -5 -17 11
l24 280q23 212 -124 211q-29 0 -43 -8q-35 -20 -65 -110q-2 -6 -6 -13l-28 -308q-1 -11 -13 -27.5t-25 -25t-21 -10.5q-18 -5 -17 11l74 804q1 12 13 28z" />
    <glyph glyph-name="Itilde" unicode="&#x128;" horiz-adv-x="247" 
d="M269.399 897q24.7988 32 52.4111 39q18.4375 5 16.0381 -11q-0.0878906 -1 -0.981445 -5.5t-1.02441 -6q-0.131836 -1.5 -1.52539 -6t-2.1123 -7t-2.6123 -7t-4.24316 -8.5l-4.69922 -8q-17.4492 -28 -39.2617 -43q-21.8115 -15 -30.6172 -18.5
q-8.80664 -3.5 -20.8066 -3.5q-16.9121 1 -23.5625 5l-38.0762 22l-39.25 20q-23.7988 -32 -50.5869 -41q-20.6123 -7 -20.3877 7l0.525391 6q-0.475586 6 -0.712891 9q-0.238281 3 0.917969 10.5t3.6377 13q2.48047 5.5 6.72363 14q4.24414 8.5 9.85645 15.5
q25.624 30 60.1104 47q16.7002 8 28.0244 6q11.3252 -2 12.8252 -2t2.41309 -1l58.376 -30zM209.104 721.5q13.3564 15.5 27.1436 24.5t21.9619 11q18.4375 5 16.0381 -11l-123.974 -720q-1.96289 -11 -15.3623 -27t-27.1865 -25t-21.9619 -11q-18.4375 -5 -16.0381 11
l123.974 720q2.0498 12 15.4053 27.5z" />
    <glyph glyph-name="itilde" unicode="&#x129;" 
d="M239.399 690q24.7988 32 52.4111 39q18.4375 5 16.0381 -11q-0.0878906 -1 -0.981445 -5.5t-1.02441 -6q-0.131836 -1.5 -1.52539 -6t-2.1123 -7t-2.6123 -7t-4.24316 -8.5l-4.69922 -8q-17.4492 -28 -39.2617 -43q-21.8115 -15 -30.6172 -18.5
q-8.80664 -3.5 -20.8066 -3.5q-16.9121 1 -23.5625 5l-38.0762 22l-39.25 20q-23.7988 -32 -50.5869 -41q-20.6123 -7 -20.3877 7l0.525391 6q-0.475586 6 -0.712891 9q-0.238281 3 0.917969 10.5t3.6377 13q2.48047 5.5 6.72363 14q4.24414 8.5 9.85645 15.5
q25.624 30 60.1104 47q16.7002 8 28.0244 6q11.3252 -2 12.8252 -2t2.41309 -1l58.376 -30zM165.169 505q13.3994 16 27.1426 24.5q13.7441 8.5 22.9189 10.5q18.3496 4 15.0381 -11l-97.082 -504q-2.0498 -12 -15.4053 -27.5t-27.0986 -24q-13.7441 -8.5 -22.9189 -10.5
q-18.3496 -4 -14.9502 12l96.9941 503q1.96191 11 15.3613 27z" />
    <glyph glyph-name="Imacron" unicode="&#x12a;" horiz-adv-x="247" 
d="M93.665 812q3.78711 9 13.9238 22t27.0986 24q16.9629 11 27.9629 11h218q15 0 6.33789 -19q-10.1865 -25 -34.0859 -41t-34.8994 -16h-218q-14 0 -6.33789 19zM209.104 721.5q13.3564 15.5 27.1436 24.5t21.9619 11q18.4375 5 16.0381 -11l-123.974 -720
q-1.96289 -11 -15.3623 -27t-27.1865 -25t-21.9619 -11q-18.4375 -5 -16.0381 11l123.974 720q2.0498 12 15.4053 27.5z" />
    <glyph glyph-name="imacron" unicode="&#x12b;" 
d="M64.665 605q3.78711 9 13.9238 22t27.0986 24q16.9629 11 27.9629 11h218q15 0 6.33789 -19q-10.1865 -25 -34.0859 -41t-34.8994 -16h-218q-14 0 -6.33789 19zM165.169 505q13.3994 16 27.1426 24.5q13.7441 8.5 22.9189 10.5q18.3496 4 15.0381 -11l-97.082 -504
q-2.0498 -12 -15.4053 -27.5t-27.0986 -24q-13.7441 -8.5 -22.9189 -10.5q-18.3496 -4 -14.9502 12l96.9941 503q1.96191 11 15.3613 27z" />
    <glyph glyph-name="Ibreve" unicode="&#x12c;" horiz-adv-x="247" 
d="M331.485 946q13.8994 16 27.1426 24.5t21.875 10q8.63086 1.5 12.3252 -2q3.69336 -3.5 2.08105 -10.5q-12.9854 -57 -46.5713 -98q-61.5596 -75 -140.385 -73q-112.737 3 -91.5039 120q1.96191 11 15.4053 27.5q13.4424 16.5 27.1865 25q13.7432 8.5 21.918 10.5
q18.4375 5 16.0381 -11q-17.1338 -93 73.6035 -96q16.9121 -1 29.2627 3q9.39941 16 13.5605 35q4.16211 19 18.0615 35zM209.104 721.5q13.3564 15.5 27.1436 24.5t21.9619 11q18.4375 5 16.0381 -11l-123.974 -720q-1.96289 -11 -15.3623 -27t-27.1865 -25t-21.9619 -11
q-18.4375 -5 -16.0381 11l123.974 720q2.0498 12 15.4053 27.5z" />
    <glyph glyph-name="ibreve" unicode="&#x12d;" 
d="M302.485 739q13.8994 16 27.1426 24.5t21.875 10q8.63086 1.5 12.3252 -2q3.69336 -3.5 2.08105 -10.5q-12.9854 -57 -46.5713 -98q-61.5596 -75 -140.385 -73q-112.737 3 -91.5039 120q1.96191 11 15.4053 27.5q13.4424 16.5 27.1865 25q13.7432 8.5 21.918 10.5
q18.4375 5 16.0381 -11q-17.1338 -93 73.6035 -96q16.9121 -1 29.2627 3q9.39941 16 13.5605 35q4.16211 19 18.0615 35zM165.169 505q13.3994 16 27.1426 24.5q13.7441 8.5 22.9189 10.5q18.3496 4 15.0381 -11l-97.082 -504q-2.0498 -12 -15.4053 -27.5t-27.0986 -24
q-13.7441 -8.5 -22.9189 -10.5q-18.3496 -4 -14.9502 12l96.9941 503q1.96191 11 15.3613 27z" />
    <glyph glyph-name="Iogonek" unicode="&#x12e;" horiz-adv-x="247" 
d="M151.192 -129q-2.78711 -9 -13.3809 -21.5q-10.5928 -12.5 -27.0986 -24t-28.5938 -12.5q-52.2617 -3 -74.3623 13t-8.51465 57q24.8594 67 87.5449 132q14.3125 15 30.5557 23.5t23.9375 5q7.69336 -3.5 2.46875 -17.5t-28.2793 -37.5q-23.0557 -23.5 -38.5547 -63.5
q-5.48633 -17 9.09473 -27.5q14.582 -10.5 56.7568 -8.5q15.0879 1 8.42578 -18zM209.104 721.5q13.3564 15.5 27.1436 24.5t21.9619 11q18.4375 5 16.0381 -11l-123.974 -720q-1.96289 -11 -15.3623 -27t-27.1865 -25t-21.9619 -11q-18.4375 -5 -16.0381 11l123.974 720
q2.0498 12 15.4053 27.5z" />
    <glyph glyph-name="iogonek" unicode="&#x12f;" 
d="M138.192 -129q-2.78711 -9 -13.3809 -21.5q-10.5928 -12.5 -27.0986 -24t-28.5938 -12.5q-52.2617 -3 -74.3623 13t-8.51465 57q24.8594 67 87.5449 132q14.3125 15 30.5557 23.5t23.9375 5q7.69336 -3.5 2.46875 -17.5t-28.2793 -37.5q-23.0557 -23.5 -38.5547 -63.5
q-5.48633 -17 9.09473 -27.5q14.582 -10.5 56.7568 -8.5q15.0879 1 8.42578 -18zM165.169 505q13.3994 16 27.1426 24.5q13.7441 8.5 22.9189 10.5q18.3496 4 15.0381 -11l-97.082 -504q-2.0498 -12 -15.4053 -27.5t-27.0986 -24q-13.7441 -8.5 -22.9189 -10.5
q-18.3496 -4 -14.9502 12l96.9941 503q1.96191 11 15.3613 27zM184.713 677q12.8994 16 26.6865 25t22.9619 11q18.4375 5 16.0381 -11l-11.1221 -70q-1.96289 -11 -14.8623 -27t-26.6865 -25t-22.9619 -11q-18.4375 -5 -16.0381 11l11.123 70q1.96191 11 14.8613 27z" />
    <glyph glyph-name="Idotaccent" unicode="&#x130;" horiz-adv-x="247" 
d="M249.521 921q58.7383 -3 44.1836 -66.5q-14.5537 -63.5 -73.2041 -59.5q-52.6494 4 -38.0518 68q14.335 61 67.0723 58zM209.104 721.5q13.3564 15.5 27.1436 24.5t21.9619 11q18.4375 5 16.0381 -11l-123.974 -720q-1.96289 -11 -15.3623 -27t-27.1865 -25t-21.9619 -11
q-18.4375 -5 -16.0381 11l123.974 720q2.0498 12 15.4053 27.5z" />
    <glyph glyph-name="dotlessi" unicode="&#x131;" 
d="M121 505q12 16 25 24.5t22 10.5q18 4 16 -11l-53 -504q-1 -12 -13 -27.5t-25 -24t-22 -10.5q-18 -4 -16 12l53 503q1 11 13 27z" />
    <glyph glyph-name="IJ" unicode="&#x132;" horiz-adv-x="659" 
d="M494.648 722q13.8994 16 27.1426 24.5q13.2441 8.5 21.9189 10.5t12.9121 -1q4.23828 -3 2.53809 -11l-114.029 -572q-13.0352 -69 -53.3203 -118q-75.2217 -94 -189.134 -93q-168.913 1 -162.006 160q0.874023 10 12.7734 26t25.7305 25.5t23.0938 12.5
q19.6123 7 19.2998 -8q-5.15723 -139 143.755 -140q51 0 72.3125 15q6.6123 7 15.0361 29t12.0859 41l114.029 572q1.96191 11 15.8613 27zM652.104 721.5q13.3564 15.5 27.1436 24.5t21.9619 11q18.4375 5 16.0381 -11l-123.974 -720q-1.96289 -11 -15.3623 -27
t-27.1865 -25t-21.9619 -11q-18.4375 -5 -16.0381 11l123.974 720q2.0498 12 15.4053 27.5z" />
    <glyph glyph-name="ij" unicode="&#x133;" horiz-adv-x="413" 
d="M165.169 505q13.3994 16 27.1426 24.5q13.7441 8.5 22.9189 10.5q18.3496 4 15.0381 -11l-97.082 -504q-2.0498 -12 -15.4053 -27.5t-27.0986 -24q-13.7441 -8.5 -22.9189 -10.5q-18.3496 -4 -14.9502 12l96.9941 503q1.96191 11 15.3613 27zM184.713 677
q12.8994 16 26.6865 25t22.9619 11q18.4375 5 16.0381 -11l-11.1221 -70q-1.96289 -11 -14.8623 -27t-26.6865 -25t-22.9619 -11q-18.4375 -5 -16.0381 11l11.123 70q1.96191 11 14.8613 27zM230.509 -68.5q15.7686 14.5 30.8369 21t20.5439 0.5q43.9766 -46 78.626 -50
q10.7988 32 20.6094 87l99.4053 542q2.0498 12 15.4053 27.5t27.1426 24.5q13.7881 9 21.9629 11q18.4375 5 15.9502 -12l-99.3174 -541q-0.4375 -5 -4.75586 -31.5q-4.31738 -26.5 -5.97363 -34q-1.65527 -7.5 -7.99219 -28.5t-13.2988 -32q-40.5977 -64 -95.4346 -85
q-22.7002 -8 -37.7002 -8t-34.0371 11q-23.7764 14 -56.7148 49q-5.47461 6 1.74902 20q7.22461 14 22.9932 28.5zM517.249 706q12.8994 16 26.6865 25t22.9619 11q18.4375 5 16.0381 -11l-11.1221 -70q-1.96191 -11 -14.8613 -27t-26.6865 -25t-22.9629 -11
q-18.4365 -5 -16.0371 11l11.1221 70q1.96191 11 14.8613 27z" />
    <glyph glyph-name="Jcircumflex" unicode="&#x134;" horiz-adv-x="484" 
d="M494.648 722q13.8994 16 27.1426 24.5q13.2441 8.5 21.9189 10.5t12.9121 -1q4.23828 -3 2.53809 -11l-114.029 -572q-13.0352 -69 -53.3203 -118q-75.2217 -94 -189.134 -93q-168.913 1 -162.006 160q0.874023 10 12.7734 26t25.7305 25.5t23.0938 12.5
q19.6123 7 19.2998 -8q-5.15723 -139 143.755 -140q51 0 72.3125 15q6.6123 7 15.0361 29t12.0859 41l114.029 572q1.96191 11 15.8613 27zM426.396 788.5q-17.0059 -11.5 -26.0059 -11.5t-11.5625 5q-4.03809 11 12.7988 32l98.8457 124l24.2734 26q31.5361 29 42.7002 8
l60.8916 -127q3.3877 -7 -5.96777 -22.5t-25.5801 -29.5t-30.6182 -18.5t-17.7812 2.5l-45.5156 97l-47.0732 -58q-12.3994 -16 -29.4053 -27.5z" />
    <glyph glyph-name="jcircumflex" unicode="&#x135;" horiz-adv-x="326" 
d="M194.396 612.5q-17.0059 -11.5 -26.0059 -11.5t-11.5625 5q-4.03809 11 12.7988 32l98.8457 124l24.2734 26q31.5361 29 42.7002 8l60.8916 -127q3.3877 -7 -5.96777 -22.5t-25.5801 -29.5t-30.6182 -18.5t-17.7812 2.5l-45.5156 97l-47.0732 -58
q-12.3994 -16 -29.4053 -27.5zM40.5088 -68.5q15.7686 14.5 30.8369 21t20.5439 0.5q43.9766 -46 78.626 -50q10.7988 32 20.6094 87l99.4053 542q2.0498 12 15.4053 27.5t27.1426 24.5q13.7881 9 21.9629 11q18.4375 5 15.9502 -12l-99.3174 -541
q-0.4375 -5 -4.75586 -31.5q-4.31738 -26.5 -5.97363 -34q-1.65527 -7.5 -7.99219 -28.5t-13.2988 -32q-40.5977 -64 -95.4346 -85q-22.7002 -8 -37.7002 -8t-34.0371 11q-23.7764 14 -56.7148 49q-5.47461 6 1.74902 20q7.22461 14 22.9932 28.5z" />
    <glyph glyph-name="uni0136" unicode="&#x136;" horiz-adv-x="580" 
d="M334.424 -38q16.6377 13 29.3564 15.5q12.7178 2.5 14.9307 -6.5q20.1553 -124 -88.5039 -223q-16.2246 -14 -31.249 -20q-15.0254 -6 -20 0q-4.97559 6 2.79297 20.5q7.76758 14.5 20.8174 26.5t21.3613 27q26.1982 48 13.3594 107q-1.21289 9 9.64258 24.5
t27.4922 28.5zM169.148 722q13.3994 16 27.1426 24.5q13.7441 8.5 21.9189 10.5q18.4375 5 16.0381 -11l-73.4727 -417l388.985 400q14.3115 15 30.5557 23.5q16.2432 8.5 23.9375 5q7.69336 -3.5 2.5127 -17t-20.5801 -29.5l-243.953 -251l190.653 -427
q3.3877 -7 -5.96875 -22.5q-9.35547 -15.5 -25.5361 -29t-30.5742 -18t-17.6943 3.5l-185.615 416l-118.67 -122l-41.5537 -235q-1.96289 -11 -15.3623 -27t-27.1865 -25t-21.9619 -11q-18.4375 -5 -16.0381 11l126.974 720q2.0498 12 15.4492 28z" />
    <glyph glyph-name="uni0137" unicode="&#x137;" horiz-adv-x="495" 
d="M277.424 -38q16.6377 13 29.3564 15.5q12.7178 2.5 14.9307 -6.5q20.1553 -124 -88.5039 -223q-16.2246 -14 -31.249 -20q-15.0254 -6 -20 0q-4.97559 6 2.79297 20.5q7.76758 14.5 20.8174 26.5t21.3613 27q26.1982 48 13.3594 107q-1.21289 9 9.64258 24.5
t27.4922 28.5zM208.495 806q13.3994 16 27.1436 24.5q13.7432 8.5 21.918 10.5q18.4375 5 16.0381 -11l-99.3672 -553l307.604 247q16.1367 13 29.4434 16.5q13.3057 3.5 15.5625 -5q2.25586 -8.5 -7.59961 -24t-26.9922 -28.5l-201.169 -162l180.897 -287
q4.3877 -7 -3.87988 -21.5q-8.26855 -14.5 -24.4932 -28.5t-30.7051 -19.5q-14.4814 -5.5 -18.8691 1.5l-182.636 290l-0.912109 1l-46.3242 -38l-34.8799 -193q-1.96289 -11 -15.4053 -27.5q-13.4434 -16.5 -27.1865 -25q-13.7441 -8.5 -21.9189 -10.5
q-18.4375 -5 -16.0381 11l144.321 804q2.04883 12 15.4482 28z" />
    <glyph glyph-name="kgreenlandic" unicode="&#x138;" horiz-adv-x="468" 
d="M109 485.5q12 15.5 25 24.5t21 11q18 5 17 -11l-26 -295l303 279q15 14 28.5 18.5t18 -3t-3.5 -22.5t-23 -29l-157 -144l155 -281q4 -7 -4 -22t-23 -29t-29 -18.5t-18 3.5l-154 279l-98 -90l-12 -130q-1 -11 -13 -27t-25 -25t-21 -11q-18 -5 -17 11l43 484q1 12 13 27.5z
" />
    <glyph glyph-name="Lacute" unicode="&#x139;" horiz-adv-x="541" 
d="M550.754 966.5q12.7188 2.5 14.4307 -6.5q1.71289 -9 -9.68652 -25q-53.7344 -77 -114.195 -128q-16.2246 -14 -30.6182 -18.5t-17.7373 3t6.01172 23t34.1924 36.5t61.2979 72q10.3115 15 26.9482 28q16.6377 13 29.3564 15.5zM62.6768 -38q-11 0 -8.95117 12
l123.974 720q1.96289 11 15.3623 27t27.1865 25t21.9619 11q18.4375 5 16.0381 -11l-121.925 -708h352q15 0 6.33887 -19q-10.1865 -25 -34.0859 -41t-34.8994 -16h-363z" />
    <glyph glyph-name="lacute" unicode="&#x13a;" horiz-adv-x="185" 
d="M389.754 958.5q12.7188 2.5 14.4307 -6.5q1.71289 -9 -9.68652 -25q-53.7344 -77 -114.195 -128q-16.2246 -14 -30.6182 -18.5t-17.7373 3t6.01172 23t34.1924 36.5t61.2979 72q10.3115 15 26.9482 28q16.6377 13 29.3564 15.5zM208.495 806q13.3994 16 27.1436 24.5
q13.7432 8.5 21.918 10.5q18.4375 5 16.0381 -11l-144.32 -804q-1.96289 -11 -15.4053 -27.5q-13.4434 -16.5 -27.1865 -25q-13.7441 -8.5 -21.9189 -10.5q-18.4375 -5 -16.0381 11l144.321 804q2.04883 12 15.4482 28z" />
    <glyph glyph-name="uni013B" unicode="&#x13b;" horiz-adv-x="541" 
d="M270.424 -38q16.6377 13 29.3564 15.5q12.7178 2.5 14.9307 -6.5q20.1553 -124 -88.5039 -223q-16.2246 -14 -31.249 -20q-15.0254 -6 -20 0q-4.97559 6 2.79297 20.5q7.76758 14.5 20.8174 26.5t21.3613 27q26.1982 48 13.3594 107q-1.21289 9 9.64258 24.5
t27.4922 28.5zM62.6768 -38q-11 0 -8.95117 12l123.974 720q1.96289 11 15.3623 27t27.1865 25t21.9619 11q18.4375 5 16.0381 -11l-121.925 -708h352q15 0 6.33887 -19q-10.1865 -25 -34.0859 -41t-34.8994 -16h-363z" />
    <glyph glyph-name="uni013C" unicode="&#x13c;" horiz-adv-x="185" 
d="M78.4238 -38q16.6377 13 29.3564 15.5q12.7178 2.5 14.9307 -6.5q20.1553 -124 -88.5039 -223q-16.2246 -14 -31.249 -20q-15.0254 -6 -20 0q-4.97559 6 2.79297 20.5q7.76758 14.5 20.8174 26.5t21.3613 27q26.1982 48 13.3594 107q-1.21289 9 9.64258 24.5
t27.4922 28.5zM208.495 806q13.3994 16 27.1436 24.5q13.7432 8.5 21.918 10.5q18.4375 5 16.0381 -11l-144.32 -804q-1.96289 -11 -15.4053 -27.5q-13.4434 -16.5 -27.1865 -25q-13.7441 -8.5 -21.9189 -10.5q-18.4375 -5 -16.0381 11l144.321 804q2.04883 12 15.4482 28z
" />
    <glyph glyph-name="Lcaron" unicode="&#x13d;" horiz-adv-x="541" 
d="M667.277 707.5q16.1807 13.5 30.0303 17.5t16.1504 -4q41.9795 -126 -87.6914 -248q-15.3115 -15 -30.8799 -21.5q-15.5693 -6.5 -21.0879 -1t1.74902 20q7.26855 14.5 23.5801 29.5q16.3994 16 27.6924 36.5t15.5488 52q4.25488 31.5 -8.68359 66.5
q-2.30078 8 7.55469 23.5t26.0371 29zM62.6768 -38q-11 0 -8.95117 12l123.974 720q1.96289 11 15.3623 27t27.1865 25t21.9619 11q18.4375 5 16.0381 -11l-121.925 -708h352q15 0 6.33887 -19q-10.1865 -25 -34.0859 -41t-34.8994 -16h-363z" />
    <glyph glyph-name="lcaron" unicode="&#x13e;" horiz-adv-x="185" 
d="M331.277 699.5q16.1807 13.5 30.0303 17.5t16.1504 -4q41.9795 -126 -87.6914 -248q-15.3115 -15 -30.8799 -21.5q-15.5693 -6.5 -21.0879 -1t1.74902 20q7.26855 14.5 23.5801 29.5q16.3994 16 27.6924 36.5t15.5488 52q4.25488 31.5 -8.68359 66.5
q-2.30078 8 7.55469 23.5t26.0371 29zM208.495 806q13.3994 16 27.1436 24.5q13.7432 8.5 21.918 10.5q18.4375 5 16.0381 -11l-144.32 -804q-1.96289 -11 -15.4053 -27.5q-13.4434 -16.5 -27.1865 -25q-13.7441 -8.5 -21.9189 -10.5q-18.4375 -5 -16.0381 11l144.321 804
q2.04883 12 15.4482 28z" />
    <glyph glyph-name="Ldot" unicode="&#x13f;" horiz-adv-x="541" 
d="M286.137 400q13.3994 16 27.1436 24.5q13.7432 8.5 21.918 10.5q18.4375 5 16.0381 -11l-18.9219 -102q-2.04883 -12 -15.4482 -28t-27.1436 -24.5q-13.7432 -8.5 -21.918 -10.5q-18.4375 -5 -16.0381 11l18.9209 102q2.0498 12 15.4492 28zM62.6768 -38
q-11 0 -8.95117 12l123.974 720q1.96289 11 15.3623 27t27.1865 25t21.9619 11q18.4375 5 16.0381 -11l-121.925 -708h352q15 0 6.33887 -19q-10.1865 -25 -34.0859 -41t-34.8994 -16h-363z" />
    <glyph glyph-name="ldot" unicode="&#x140;" horiz-adv-x="396" 
d="M319.137 356q13.3994 16 27.1436 24.5q13.7432 8.5 21.918 10.5q18.4375 5 16.0381 -11l-18.9219 -102q-2.04883 -12 -15.4482 -28t-27.1436 -24.5q-13.7432 -8.5 -21.918 -10.5q-18.4375 -5 -16.0381 11l18.9209 102q2.0498 12 15.4492 28zM208.495 806
q13.3994 16 27.1436 24.5q13.7432 8.5 21.918 10.5q18.4375 5 16.0381 -11l-144.32 -804q-1.96289 -11 -15.4053 -27.5q-13.4434 -16.5 -27.1865 -25q-13.7441 -8.5 -21.9189 -10.5q-18.4375 -5 -16.0381 11l144.321 804q2.04883 12 15.4482 28z" />
    <glyph glyph-name="Lslash" unicode="&#x141;" horiz-adv-x="489" 
d="M136 684q12 16 25 24.5t21 10.5q18 5 17 -11l-27 -282l127 58q15 7 21 1.5t0.5 -19.5t-20 -29t-29.5 -21l-105 -48l-32 -330h371q15 0 8 -19q-8 -25 -30.5 -41t-33.5 -16h-382q-12 0 -10 12l35 360l-75 -34q-15 -7 -21 -1.5t-0.5 19.5t20 29t29.5 21l52 25l26 263
q1 12 13 28z" />
    <glyph glyph-name="lslash" unicode="&#x142;" horiz-adv-x="196" 
d="M-21 308q4 13 18 29q14 15 29 24l242 130q15 8 23 4t4 -17t-18 -29q-14 -15 -29 -24l-242 -130q-15 -8 -23 -4t-4 17zM138 806q12 16 25 24.5t21 10.5q18 5 17 -11l-74 -804q-1 -11 -13 -27.5t-25 -25t-21 -10.5q-18 -5 -17 11l74 804q1 12 13 28z" />
    <glyph glyph-name="Nacute" unicode="&#x143;" horiz-adv-x="607" 
d="M547.754 981.5q12.7188 2.5 14.4307 -6.5q1.71289 -9 -9.68652 -25q-53.7344 -77 -114.195 -128q-16.2246 -14 -30.6182 -18.5t-17.7373 3t6.01172 23t34.1924 36.5t61.2979 72q10.3115 15 26.9482 28q16.6377 13 29.3564 15.5zM116.825 -2q-13.3994 -16 -27.1426 -24.5
q-13.7441 -8.5 -21.9189 -10.5q-18.4375 -5 -16.0381 11l132.974 720q42.1113 47 59.4424 56.5t20.7188 2.5l243.521 -600l94.3174 541q1.96289 11 15.4053 27.5q13.4434 16.5 27.1865 25q13.7441 8.5 21.9189 10.5q18.4375 5 16.0381 -11l-125.974 -720
q-2.0498 -12 -22.3623 -27q-20.3115 -15 -39.0117 -23l-18.7871 -9l-244.259 603l-100.58 -544q-2.0498 -12 -15.4492 -28z" />
    <glyph glyph-name="nacute" unicode="&#x144;" horiz-adv-x="502" 
d="M451.754 769.5q12.7188 2.5 14.4307 -6.5q1.71289 -9 -9.68652 -25q-53.7344 -77 -114.195 -128q-16.2246 -14 -30.6182 -18.5t-17.7373 3t6.01172 23t34.1924 36.5t61.2979 72q10.3115 15 26.9482 28q16.6377 13 29.3564 15.5zM165.169 505q13.3994 16 27.1426 24.5
q13.7441 8.5 22.9189 10.5q18.3496 4 15.0381 -11l-12.7734 -66q30.7988 32 72.8105 55t84.0117 23q171.175 2 125.446 -235l-48.4893 -280q-1.96289 -11 -15.3623 -27t-27.1865 -25t-21.9619 -11q-18.4375 -5 -16.0381 11l48.4902 280q41.542 212 -105.545 211
q-29 0 -43.7002 -8q-36.749 -20 -74.6211 -110q-0.0869141 -1 -0.261719 -3l-61.9014 -319q-2.0498 -12 -15.4053 -27.5t-27.0986 -24q-13.7441 -8.5 -22.9189 -10.5q-18.3496 -4 -14.9502 12l96.9941 503q1.96191 11 15.3613 27z" />
    <glyph glyph-name="uni0145" unicode="&#x145;" horiz-adv-x="607" 
d="M353.424 -38q16.6377 13 29.3564 15.5q12.7178 2.5 14.9307 -6.5q20.1553 -124 -88.5039 -223q-16.2246 -14 -31.249 -20q-15.0254 -6 -20 0q-4.97559 6 2.79297 20.5q7.76758 14.5 20.8174 26.5t21.3613 27q26.1982 48 13.3594 107q-1.21289 9 9.64258 24.5
t27.4922 28.5zM116.825 -2q-13.3994 -16 -27.1426 -24.5q-13.7441 -8.5 -21.9189 -10.5q-18.4375 -5 -16.0381 11l132.974 720q42.1113 47 59.4424 56.5t20.7188 2.5l243.521 -600l94.3174 541q1.96289 11 15.4053 27.5q13.4434 16.5 27.1865 25q13.7441 8.5 21.9189 10.5
q18.4375 5 16.0381 -11l-125.974 -720q-2.0498 -12 -22.3623 -27q-20.3115 -15 -39.0117 -23l-18.7871 -9l-244.259 603l-100.58 -544q-2.0498 -12 -15.4492 -28z" />
    <glyph glyph-name="uni0146" unicode="&#x146;" horiz-adv-x="502" 
d="M276.424 -38q16.6377 13 29.3564 15.5q12.7178 2.5 14.9307 -6.5q20.1553 -124 -88.5039 -223q-16.2246 -14 -31.249 -20q-15.0254 -6 -20 0q-4.97559 6 2.79297 20.5q7.76758 14.5 20.8174 26.5t21.3613 27q26.1982 48 13.3594 107q-1.21289 9 9.64258 24.5
t27.4922 28.5zM165.169 505q13.3994 16 27.1426 24.5q13.7441 8.5 22.9189 10.5q18.3496 4 15.0381 -11l-12.7734 -66q30.7988 32 72.8105 55t84.0117 23q171.175 2 125.446 -235l-48.4893 -280q-1.96289 -11 -15.3623 -27t-27.1865 -25t-21.9619 -11
q-18.4375 -5 -16.0381 11l48.4902 280q41.542 212 -105.545 211q-29 0 -43.7002 -8q-36.749 -20 -74.6211 -110q-0.0869141 -1 -0.261719 -3l-61.9014 -319q-2.0498 -12 -15.4053 -27.5t-27.0986 -24q-13.7441 -8.5 -22.9189 -10.5q-18.3496 -4 -14.9502 12l96.9941 503
q1.96191 11 15.3613 27z" />
    <glyph glyph-name="Ncaron" unicode="&#x147;" horiz-adv-x="607" 
d="M390.983 992q15.7246 14 30.1182 18.5t18.7812 -2.5l51.9922 -103l59.1221 70q13.3994 16 29.8613 27t24.918 10.5q8.45703 -0.5 9.93164 -6.5q2.95117 -12 -14.8857 -33l-109.458 -131q-51.4229 -62 -64.8857 -33l-66.543 131q-3.3877 7 5.96777 22.5
q9.35645 15.5 25.0801 29.5zM116.825 -2q-13.3994 -16 -27.1426 -24.5q-13.7441 -8.5 -21.9189 -10.5q-18.4375 -5 -16.0381 11l132.974 720q42.1113 47 59.4424 56.5t20.7188 2.5l243.521 -600l94.3174 541q1.96289 11 15.4053 27.5q13.4434 16.5 27.1865 25
q13.7441 8.5 21.9189 10.5q18.4375 5 16.0381 -11l-125.974 -720q-2.0498 -12 -22.3623 -27q-20.3115 -15 -39.0117 -23l-18.7871 -9l-244.259 603l-100.58 -544q-2.0498 -12 -15.4492 -28z" />
    <glyph glyph-name="ncaron" unicode="&#x148;" horiz-adv-x="502" 
d="M295.983 785q15.7246 14 30.1182 18.5t18.7812 -2.5l51.9922 -103l59.1221 70q13.3994 16 29.8613 27t24.918 10.5q8.45703 -0.5 9.93164 -6.5q2.95117 -12 -14.8857 -33l-109.458 -131q-51.4229 -62 -64.8857 -33l-66.543 131q-3.3877 7 5.96777 22.5
q9.35645 15.5 25.0801 29.5zM165.169 505q13.3994 16 27.1426 24.5q13.7441 8.5 22.9189 10.5q18.3496 4 15.0381 -11l-12.7734 -66q30.7988 32 72.8105 55t84.0117 23q171.175 2 125.446 -235l-48.4893 -280q-1.96289 -11 -15.3623 -27t-27.1865 -25t-21.9619 -11
q-18.4375 -5 -16.0381 11l48.4902 280q41.542 212 -105.545 211q-29 0 -43.7002 -8q-36.749 -20 -74.6211 -110q-0.0869141 -1 -0.261719 -3l-61.9014 -319q-2.0498 -12 -15.4053 -27.5t-27.0986 -24q-13.7441 -8.5 -22.9189 -10.5q-18.3496 -4 -14.9502 12l96.9941 503
q1.96191 11 15.3613 27z" />
    <glyph glyph-name="Omacron" unicode="&#x14c;" horiz-adv-x="673" 
d="M318.665 812q3.78711 9 13.9238 22t27.0986 24q16.9629 11 27.9629 11h218q15 0 6.33789 -19q-10.1865 -25 -34.0859 -41t-34.8994 -16h-218q-14 0 -6.33789 19zM498.297 758q261.301 -8 189.452 -395q-31.8682 -170 -112.527 -269q-112.982 -137 -274.545 -132
q-262.301 8 -196.076 365q17.3965 96 46.1934 168q28.7979 72 77.8711 130q113.069 138 269.632 133zM435.65 682q-105.738 3 -156.073 -58q-26.8867 -33 -52.9844 -97t-41.4443 -148q-62.125 -333 178.175 -341q109.65 -4 159.985 57q24.624 30 47.5664 86.5
q22.9414 56.5 36.3262 129.5q67.749 363 -171.551 371z" />
    <glyph glyph-name="omacron" unicode="&#x14d;" horiz-adv-x="538" 
d="M238.665 605q3.78711 9 13.9238 22t27.0986 24q16.9629 11 27.9629 11h218q15 0 6.33789 -19q-10.1865 -25 -34.0859 -41t-34.8994 -16h-218q-14 0 -6.33789 19zM407.317 541q182.601 -16 121.674 -301q-24.9707 -114 -83.0059 -183q-89.2715 -106 -207.309 -95
q-200.426 18 -148.26 260q15.0352 69 37.083 121t60.9844 97q94.7949 112 218.833 101zM342.671 465q-75.3877 7 -105.537 -29q-16.6611 -19 -35.4658 -62.5t-30.8779 -101.5q-47.0674 -218 132.533 -234q68.4756 -6 93.0117 23q12.3125 15 27.3301 49.5t24.9531 79.5
q56.8281 261 -105.947 275z" />
    <glyph glyph-name="Obreve" unicode="&#x14e;" horiz-adv-x="673" 
d="M556.485 946q13.8994 16 27.1426 24.5t21.875 10q8.63086 1.5 12.3252 -2q3.69336 -3.5 2.08105 -10.5q-12.9854 -57 -46.5713 -98q-61.5596 -75 -140.385 -73q-112.737 3 -91.5039 120q1.96191 11 15.4053 27.5q13.4424 16.5 27.1865 25q13.7432 8.5 21.918 10.5
q18.4375 5 16.0381 -11q-17.1338 -93 73.6035 -96q16.9121 -1 29.2627 3q9.39941 16 13.5605 35q4.16211 19 18.0615 35zM498.297 758q261.301 -8 189.452 -395q-31.8682 -170 -112.527 -269q-112.982 -137 -274.545 -132q-262.301 8 -196.076 365q17.3965 96 46.1934 168
q28.7979 72 77.8711 130q113.069 138 269.632 133zM435.65 682q-105.738 3 -156.073 -58q-26.8867 -33 -52.9844 -97t-41.4443 -148q-62.125 -333 178.175 -341q109.65 -4 159.985 57q24.624 30 47.5664 86.5q22.9414 56.5 36.3262 129.5q67.749 363 -171.551 371z" />
    <glyph glyph-name="obreve" unicode="&#x14f;" horiz-adv-x="538" 
d="M476.485 739q13.8994 16 27.1426 24.5t21.875 10q8.63086 1.5 12.3252 -2q3.69336 -3.5 2.08105 -10.5q-12.9854 -57 -46.5713 -98q-61.5596 -75 -140.385 -73q-112.737 3 -91.5039 120q1.96191 11 15.4053 27.5q13.4424 16.5 27.1865 25q13.7432 8.5 21.918 10.5
q18.4375 5 16.0381 -11q-17.1338 -93 73.6035 -96q16.9121 -1 29.2627 3q9.39941 16 13.5605 35q4.16211 19 18.0615 35zM407.317 541q182.601 -16 121.674 -301q-24.9707 -114 -83.0059 -183q-89.2715 -106 -207.309 -95q-200.426 18 -148.26 260q15.0352 69 37.083 121
t60.9844 97q94.7949 112 218.833 101zM342.671 465q-75.3877 7 -105.537 -29q-16.6611 -19 -35.4658 -62.5t-30.8779 -101.5q-47.0674 -218 132.533 -234q68.4756 -6 93.0117 23q12.3125 15 27.3301 49.5t24.9531 79.5q56.8281 261 -105.947 275z" />
    <glyph glyph-name="Ohungarumlaut" unicode="&#x150;" horiz-adv-x="673" 
d="M506.039 1015.5q13.8936 4.5 17.7373 -3q3.84473 -7.5 -5.46777 -22.5l-79.6328 -133q-9.31152 -15 -25.5361 -29t-30.1182 -18.5t-17.7373 3t5.46777 22.5l79.6328 133q9.31152 15 25.5361 29t30.1182 18.5zM647.495 1015q14.4375 5 18.3252 -2t-4.42383 -22
l-82.332 -141q-8.3125 -15 -25.0371 -29t-31.1611 -19q-14.4375 -5 -18.3252 2t4.42383 22l82.332 141q8.3125 15 25.0371 29t31.1611 19zM498.297 758q261.301 -8 189.452 -395q-31.8682 -170 -112.527 -269q-112.982 -137 -274.545 -132q-262.301 8 -196.076 365
q17.3965 96 46.1934 168q28.7979 72 77.8711 130q113.069 138 269.632 133zM435.65 682q-105.738 3 -156.073 -58q-26.8867 -33 -52.9844 -97t-41.4443 -148q-62.125 -333 178.175 -341q109.65 -4 159.985 57q24.624 30 47.5664 86.5q22.9414 56.5 36.3262 129.5
q67.749 363 -171.551 371z" />
    <glyph glyph-name="ohungarumlaut" unicode="&#x151;" horiz-adv-x="538" 
d="M426.039 808.5q13.8936 4.5 17.7373 -3q3.84473 -7.5 -5.46777 -22.5l-79.6328 -133q-9.31152 -15 -25.5361 -29t-30.1182 -18.5t-17.7373 3t5.46777 22.5l79.6328 133q9.31152 15 25.5361 29t30.1182 18.5zM567.495 808q14.4375 5 18.3252 -2t-4.42383 -22l-82.332 -141
q-8.3125 -15 -25.0371 -29t-31.1611 -19q-14.4375 -5 -18.3252 2t4.42383 22l82.332 141q8.3125 15 25.0371 29t31.1611 19zM407.317 541q182.601 -16 121.674 -301q-24.9707 -114 -83.0059 -183q-89.2715 -106 -207.309 -95q-200.426 18 -148.26 260q15.0352 69 37.083 121
t60.9844 97q94.7949 112 218.833 101zM342.671 465q-75.3877 7 -105.537 -29q-16.6611 -19 -35.4658 -62.5t-30.8779 -101.5q-47.0674 -218 132.533 -234q68.4756 -6 93.0117 23q12.3125 15 27.3301 49.5t24.9531 79.5q56.8281 261 -105.947 275z" />
    <glyph glyph-name="OE" unicode="&#x152;" horiz-adv-x="1007" 
d="M1075 763q10 0 10 -10q0 -11 -11.5 -27t-27.5 -27.5t-27 -11.5h-337l-24 -280h341q15 0 8 -19q-8 -25 -30.5 -41t-33.5 -16h-292l-24 -288h385q15 0 8 -19q-8 -25 -30.5 -41t-33.5 -16h-393q-7 -1 -10.5 2.5t-2.5 11.5l61 718q1 11 13 28q22 29 46 35q5 1 7 1h4h394z
M432 758q262 -8 224 -395q-17 -170 -89 -269q-101 -137 -263 -132q-263 8 -228 365q9 96 31.5 168t66.5 130q101 138 258 133zM376 682q-106 3 -151 -58q-24 -33 -44.5 -97t-28.5 -148q-33 -333 208 -341q110 -4 155 57q22 30 40 86.5t25 129.5q36 363 -204 371z" />
    <glyph glyph-name="oe" unicode="&#x153;" horiz-adv-x="871" 
d="M508 234q-4 -185 161 -196q35 -3 63 2q36 6 40 14q8 15 23.5 29t28.5 18.5t18 -3.5q7 -13 -19 -47t-53.5 -53.5t-53.5 -26.5q-58 -16 -105 -9q-197 13 -177 249q6 73 22 126.5t51 100.5q80 108 199 103q189 -7 158 -251q-9 -40 -40 -57q-12 -7 -26 -6zM515 309q7 2 11 2
l266 -6q-3 155 -143 160q-68 3 -91 -29q-30 -40 -43 -127zM360 541q184 -16 148 -301q-15 -114 -67 -183q-80 -106 -199 -95q-202 18 -171 260q9 69 26.5 121t52.5 97q85 112 210 101zM302 465q-76 7 -103 -29q-15 -19 -30 -62.5t-22 -101.5q-28 -218 153 -234q69 -6 91 23
q11 15 23 49.5t18 79.5q34 261 -130 275zM360 541q184 -16 148 -301q-15 -114 -67 -183q-80 -106 -199 -95q-202 18 -171 260q9 69 26.5 121t52.5 97q85 112 210 101zM302 465q-76 7 -103 -29q-15 -19 -30 -62.5t-22 -101.5q-28 -218 153 -234q69 -6 91 23q11 15 23 49.5
t18 79.5q34 261 -130 275z" />
    <glyph glyph-name="Racute" unicode="&#x154;" horiz-adv-x="597" 
d="M466.754 987.5q12.7188 2.5 14.4307 -6.5q1.71289 -9 -9.68652 -25q-53.7344 -77 -114.195 -128q-16.2246 -14 -30.6182 -18.5t-17.7373 3t6.01172 23t34.1924 36.5t61.2979 72q10.3115 15 26.9482 28q16.6377 13 29.3564 15.5zM341.653 259q-60.5742 -18 -104.074 -18
t-66.3252 2l-36.9795 -217q-1.96289 -11 -15.3623 -27t-27.1865 -25t-21.9619 -11q-18.4375 -5 -16.0381 11l123.974 720q1.96289 11 15.4492 28q27.8867 33 53.1484 36q61.0996 24 123.6 24t115.313 -25q69.1133 -33 99.541 -91q30.4268 -58 24.917 -121
q-10.4082 -119 -129.718 -214q-23.6611 -19 -48.8857 -33l88.8223 -265q2.2998 -8 -7.55566 -23.5t-26.0361 -29q-16.1816 -13.5 -30.0312 -17.5t-16.1504 4zM410.737 340q108.674 42 118.12 150q4.81055 55 -22.9668 109t-84.459 80.5q-56.6826 26.5 -114.683 26.5
q-29 0 -56.5244 -6l-63.5371 -372q101.813 -25 199.351 4q14.7871 9 24.6992 8z" />
    <glyph glyph-name="racute" unicode="&#x155;" horiz-adv-x="319" 
d="M432.754 759.5q12.7188 2.5 14.4307 -6.5q1.71289 -9 -9.68652 -25q-53.7344 -77 -114.195 -128q-16.2246 -14 -30.6182 -18.5t-17.7373 3t6.01172 23t34.1924 36.5t61.2979 72q10.3115 15 26.9482 28q16.6377 13 29.3564 15.5zM165.169 505q13.3994 16 27.1426 24.5
q13.7441 8.5 22.9189 10.5q18.3496 4 15.0381 -11l-8.84863 -44q82.6846 65 163.897 56q13.8252 -2 5.16309 -21q-12.2734 -26 -36.5859 -41q-24.3115 -15 -33.2236 -14q-50.4756 6 -88.8369 -21q-18.1377 -13 -29.3359 -61l-69.3115 -358q-2.0498 -12 -15.4053 -27.5
t-27.0986 -24q-13.7441 -8.5 -22.9189 -10.5q-18.3496 -4 -14.9502 12l67.6123 350q0.174805 2 1.69922 8l27.6826 145q1.96191 11 15.3613 27z" />
    <glyph glyph-name="uni0156" unicode="&#x156;" horiz-adv-x="597" 
d="M332.424 -38q16.6377 13 29.3564 15.5q12.7178 2.5 14.9307 -6.5q20.1553 -124 -88.5039 -223q-16.2246 -14 -31.249 -20q-15.0254 -6 -20 0q-4.97559 6 2.79297 20.5q7.76758 14.5 20.8174 26.5t21.3613 27q26.1982 48 13.3594 107q-1.21289 9 9.64258 24.5
t27.4922 28.5zM341.653 259q-60.5742 -18 -104.074 -18t-66.3252 2l-36.9795 -217q-1.96289 -11 -15.3623 -27t-27.1865 -25t-21.9619 -11q-18.4375 -5 -16.0381 11l123.974 720q1.96289 11 15.4492 28q27.8867 33 53.1484 36q61.0996 24 123.6 24t115.313 -25
q69.1133 -33 99.541 -91q30.4268 -58 24.917 -121q-10.4082 -119 -129.718 -214q-23.6611 -19 -48.8857 -33l88.8223 -265q2.2998 -8 -7.55566 -23.5t-26.0361 -29q-16.1816 -13.5 -30.0312 -17.5t-16.1504 4zM410.737 340q108.674 42 118.12 150q4.81055 55 -22.9668 109
t-84.459 80.5q-56.6826 26.5 -114.683 26.5q-29 0 -56.5244 -6l-63.5371 -372q101.813 -25 199.351 4q14.7871 9 24.6992 8z" />
    <glyph glyph-name="uni0157" unicode="&#x157;" horiz-adv-x="319" 
d="M101.424 -38q16.6377 13 29.3564 15.5q12.7178 2.5 14.9307 -6.5q20.1553 -124 -88.5039 -223q-16.2246 -14 -31.249 -20q-15.0254 -6 -20 0q-4.97559 6 2.79297 20.5q7.76758 14.5 20.8174 26.5t21.3613 27q26.1982 48 13.3594 107q-1.21289 9 9.64258 24.5
t27.4922 28.5zM165.169 505q13.3994 16 27.1426 24.5q13.7441 8.5 22.9189 10.5q18.3496 4 15.0381 -11l-8.84863 -44q82.6846 65 163.897 56q13.8252 -2 5.16309 -21q-12.2734 -26 -36.5859 -41q-24.3115 -15 -33.2236 -14q-50.4756 6 -88.8369 -21
q-18.1377 -13 -29.3359 -61l-69.3115 -358q-2.0498 -12 -15.4053 -27.5t-27.0986 -24q-13.7441 -8.5 -22.9189 -10.5q-18.3496 -4 -14.9502 12l67.6123 350q0.174805 2 1.69922 8l27.6826 145q1.96191 11 15.3613 27z" />
    <glyph glyph-name="Rcaron" unicode="&#x158;" horiz-adv-x="597" 
d="M239.983 992q15.7246 14 30.1182 18.5t18.7812 -2.5l51.9922 -103l59.1221 70q13.3994 16 29.8613 27t24.918 10.5q8.45703 -0.5 9.93164 -6.5q2.95117 -12 -14.8857 -33l-109.458 -131q-51.4229 -62 -64.8857 -33l-66.543 131q-3.3877 7 5.96777 22.5
q9.35645 15.5 25.0801 29.5zM341.653 259q-60.5742 -18 -104.074 -18t-66.3252 2l-36.9795 -217q-1.96289 -11 -15.3623 -27t-27.1865 -25t-21.9619 -11q-18.4375 -5 -16.0381 11l123.974 720q1.96289 11 15.4492 28q27.8867 33 53.1484 36q61.0996 24 123.6 24t115.313 -25
q69.1133 -33 99.541 -91q30.4268 -58 24.917 -121q-10.4082 -119 -129.718 -214q-23.6611 -19 -48.8857 -33l88.8223 -265q2.2998 -8 -7.55566 -23.5t-26.0361 -29q-16.1816 -13.5 -30.0312 -17.5t-16.1504 4zM410.737 340q108.674 42 118.12 150q4.81055 55 -22.9668 109
t-84.459 80.5q-56.6826 26.5 -114.683 26.5q-29 0 -56.5244 -6l-63.5371 -372q101.813 -25 199.351 4q14.7871 9 24.6992 8z" />
    <glyph glyph-name="rcaron" unicode="&#x159;" horiz-adv-x="319" 
d="M189.983 785q15.7246 14 30.1182 18.5t18.7812 -2.5l51.9922 -103l59.1221 70q13.3994 16 29.8613 27t24.918 10.5q8.45703 -0.5 9.93164 -6.5q2.95117 -12 -14.8857 -33l-109.458 -131q-51.4229 -62 -64.8857 -33l-66.543 131q-3.3877 7 5.96777 22.5
q9.35645 15.5 25.0801 29.5zM165.169 505q13.3994 16 27.1426 24.5q13.7441 8.5 22.9189 10.5q18.3496 4 15.0381 -11l-8.84863 -44q82.6846 65 163.897 56q13.8252 -2 5.16309 -21q-12.2734 -26 -36.5859 -41q-24.3115 -15 -33.2236 -14q-50.4756 6 -88.8369 -21
q-18.1377 -13 -29.3359 -61l-69.3115 -358q-2.0498 -12 -15.4053 -27.5t-27.0986 -24q-13.7441 -8.5 -22.9189 -10.5q-18.3496 -4 -14.9502 12l67.6123 350q0.174805 2 1.69922 8l27.6826 145q1.96191 11 15.3613 27z" />
    <glyph glyph-name="Sacute" unicode="&#x15a;" horiz-adv-x="624" 
d="M609.754 966.5q12.7188 2.5 14.4307 -6.5q1.71289 -9 -9.68652 -25q-53.7344 -77 -114.195 -128q-16.2246 -14 -30.6182 -18.5t-17.7373 3t6.01172 23t34.1924 36.5t61.2979 72q10.3115 15 26.9482 28q16.6377 13 29.3564 15.5zM641.187 539.5
q-16.1807 -13.5 -30.5742 -18t-17.7812 2.5q-28.3154 65 -84.5537 108q-56.2393 43 -123.627 50q-41.6504 4 -73.9814 -5.5t-45.9678 -22.5t-22.5674 -46.5q-8.92969 -33.5 4.57129 -73.5q13.502 -40 48.1836 -66.5q34.6826 -26.5 87.0205 -45.5q2.91309 -1 37.8193 -13.5
q34.9072 -12.5 53.207 -20.5q124.189 -55 130.744 -163q4.70215 -72 -47.333 -141q-29.498 -40 -70.0352 -69q-101.297 -72 -211.635 -53q-73.8633 13 -131.621 61.5q-57.7588 48.5 -85.6357 118.5q-3.30078 8 6.51172 23q9.81152 15 25.9922 28.5t30.0742 18
q13.8945 4.5 17.1943 -3.5q27.2275 -66 81.7041 -112t117.015 -57t105.306 3.5q42.7686 14.5 57.5176 34.5q27.2363 37 23.8721 90q-5.69141 95 -121.143 147q-17.3008 8 -52.3389 19q-90.2012 32 -128.577 62t-54.3965 75.5t-0.709961 100.5t68.8584 107
q97.0469 92 214.997 80q74.3008 -8 133.821 -53.5t89.5723 -113.5q3.3877 -7 -5.96777 -22.5t-25.5361 -29z" />
    <glyph glyph-name="sacute" unicode="&#x15b;" horiz-adv-x="511" 
d="M549.754 759.5q12.7188 2.5 14.4307 -6.5q1.71289 -9 -9.68652 -25q-53.7344 -77 -114.195 -128q-16.2246 -14 -30.6182 -18.5t-17.7373 3t6.01172 23t34.1924 36.5t61.2979 72q10.3115 15 26.9482 28q16.6377 13 29.3564 15.5zM472.943 359.5
q-16.6807 -13.5 -29.9434 -16.5t-15.5625 5q-12.9766 46 -47.6348 78.5q-34.6572 32.5 -75.1318 38.5q-40.4756 6 -64.6123 -7q-23.6738 -42 3.21582 -89q23.4131 -41 101.614 -73q53.0762 -22 70.2012 -32q75.7148 -49 66.9805 -126q-7.33594 -61 -68.2334 -117
q-110.834 -101 -234.324 -38q-69.8506 36 -110.291 111q-3.3877 7 5.42383 22q8.8125 15 25.0371 29q16.2236 14 30.6611 19t17.8252 -2q46.5654 -85 127.941 -115q52.3389 -19 96.5635 -5q14.4365 5 17.7871 9q14.9238 22 9.98535 57q-8.40234 64 -101.991 103
q-3.8252 2 -22.2129 9q-52.1631 21 -68.9395 35q-85.2266 66 -46.1807 158q15.2363 37 45.7725 66q77.4727 74 159.423 62q51.3877 -7 89.2832 -42.5q37.8945 -35.5 51.4346 -86.5q2.2998 -8 -7.55566 -23.5t-26.5361 -29z" />
    <glyph glyph-name="Scircumflex" unicode="&#x15c;" horiz-adv-x="624" 
d="M376.396 819.5q-17.0059 -11.5 -26.0059 -11.5t-11.5625 5q-4.03809 11 12.7988 32l98.8457 124l24.2734 26q31.5361 29 42.7002 8l60.8916 -127q3.3877 -7 -5.96777 -22.5t-25.5801 -29.5t-30.6182 -18.5t-17.7812 2.5l-45.5156 97l-47.0732 -58
q-12.3994 -16 -29.4053 -27.5zM641.187 539.5q-16.1807 -13.5 -30.5742 -18t-17.7812 2.5q-28.3154 65 -84.5537 108q-56.2393 43 -123.627 50q-41.6504 4 -73.9814 -5.5t-45.9678 -22.5t-22.5674 -46.5q-8.92969 -33.5 4.57129 -73.5q13.502 -40 48.1836 -66.5
q34.6826 -26.5 87.0205 -45.5q2.91309 -1 37.8193 -13.5q34.9072 -12.5 53.207 -20.5q124.189 -55 130.744 -163q4.70215 -72 -47.333 -141q-29.498 -40 -70.0352 -69q-101.297 -72 -211.635 -53q-73.8633 13 -131.621 61.5q-57.7588 48.5 -85.6357 118.5
q-3.30078 8 6.51172 23q9.81152 15 25.9922 28.5t30.0742 18q13.8945 4.5 17.1943 -3.5q27.2275 -66 81.7041 -112t117.015 -57t105.306 3.5q42.7686 14.5 57.5176 34.5q27.2363 37 23.8721 90q-5.69141 95 -121.143 147q-17.3008 8 -52.3389 19q-90.2012 32 -128.577 62
t-54.3965 75.5t-0.709961 100.5t68.8584 107q97.0469 92 214.997 80q74.3008 -8 133.821 -53.5t89.5723 -113.5q3.3877 -7 -5.96777 -22.5t-25.5361 -29z" />
    <glyph glyph-name="scircumflex" unicode="&#x15d;" horiz-adv-x="511" 
d="M316.396 612.5q-17.0059 -11.5 -26.0059 -11.5t-11.5625 5q-4.03809 11 12.7988 32l98.8457 124l24.2734 26q31.5361 29 42.7002 8l60.8916 -127q3.3877 -7 -5.96777 -22.5t-25.5801 -29.5t-30.6182 -18.5t-17.7812 2.5l-45.5156 97l-47.0732 -58
q-12.3994 -16 -29.4053 -27.5zM472.943 359.5q-16.6807 -13.5 -29.9434 -16.5t-15.5625 5q-12.9766 46 -47.6348 78.5q-34.6572 32.5 -75.1318 38.5q-40.4756 6 -64.6123 -7q-23.6738 -42 3.21582 -89q23.4131 -41 101.614 -73q53.0762 -22 70.2012 -32
q75.7148 -49 66.9805 -126q-7.33594 -61 -68.2334 -117q-110.834 -101 -234.324 -38q-69.8506 36 -110.291 111q-3.3877 7 5.42383 22q8.8125 15 25.0371 29q16.2236 14 30.6611 19t17.8252 -2q46.5654 -85 127.941 -115q52.3389 -19 96.5635 -5q14.4365 5 17.7871 9
q14.9238 22 9.98535 57q-8.40234 64 -101.991 103q-3.8252 2 -22.2129 9q-52.1631 21 -68.9395 35q-85.2266 66 -46.1807 158q15.2363 37 45.7725 66q77.4727 74 159.423 62q51.3877 -7 89.2832 -42.5q37.8945 -35.5 51.4346 -86.5q2.2998 -8 -7.55566 -23.5t-26.5361 -29z
" />
    <glyph glyph-name="Scedilla" unicode="&#x15e;" horiz-adv-x="624" 
d="M255.5 -9q15.5 13 28 15.5t15.5 -6.5q31 -124 -69 -223q-15 -14 -29.5 -20t-20 0t1 20.5t18.5 26.5t19 27q22 48 4 107q-2 9 7.5 24.5t25 28.5zM594 539.5q-15 -13.5 -29 -18t-18 2.5q-34 65 -94 108t-128 50q-42 4 -73.5 -5.5t-44 -22.5t-18.5 -46.5t11 -73.5t54 -66.5
t91 -45.5q3 -1 39 -13.5t55 -20.5q129 -55 145 -163q11 -72 -35 -141q-26 -40 -64 -69q-95 -72 -207 -53q-75 13 -137 61.5t-96 118.5q-4 8 4.5 23t23.5 28.5t28.5 18t17.5 -3.5q33 -66 91.5 -112t122 -57t105 3.5t54.5 34.5q24 37 16 90q-14 95 -134 147q-18 8 -54 19
q-93 32 -134 62t-61 75.5t-9.5 100.5t59.5 107q89 92 208 80q75 -8 138.5 -53.5t99.5 -113.5q4 -7 -4 -22.5t-23 -29z" />
    <glyph glyph-name="scedilla" unicode="&#x15f;" horiz-adv-x="511" 
d="M244.5 -7q15.5 13 28 15.5t15.5 -6.5q31 -124 -69 -223q-15 -14 -29.5 -20t-20 0t1 20.5t18.5 26.5t19 27q22 48 4 107q-2 9 7.5 24.5t25 28.5zM441.5 359.5q-15.5 -13.5 -28.5 -16.5t-16 5q-17 46 -54.5 78.5t-78.5 38.5t-64 -7q-20 -42 11 -89q27 -41 108 -73
q55 -22 73 -32q80 -49 78 -126q-2 -61 -58 -117q-102 -101 -231 -38q-73 36 -120 111q-4 7 3.5 22t22.5 29t29 19t18 -2q54 -85 138 -115q54 -19 97 -5q14 5 17 9q13 22 5 57q-14 64 -111 103q-4 2 -23 9q-54 21 -72 35q-91 66 -60 158q12 37 40 66q71 74 154 62
q52 -7 93 -42.5t59 -86.5q3 -8 -5.5 -23.5t-24 -29z" />
    <glyph glyph-name="Scaron" unicode="&#x160;" horiz-adv-x="624" 
d="M367.983 992q15.7246 14 30.1182 18.5t18.7812 -2.5l51.9922 -103l59.1221 70q13.3994 16 29.8613 27t24.918 10.5q8.45703 -0.5 9.93164 -6.5q2.95117 -12 -14.8857 -33l-109.458 -131q-51.4229 -62 -64.8857 -33l-66.543 131q-3.3877 7 5.96777 22.5
q9.35645 15.5 25.0801 29.5zM641.187 539.5q-16.1807 -13.5 -30.5742 -18t-17.7812 2.5q-28.3154 65 -84.5537 108q-56.2393 43 -123.627 50q-41.6504 4 -73.9814 -5.5t-45.9678 -22.5t-22.5674 -46.5q-8.92969 -33.5 4.57129 -73.5q13.502 -40 48.1836 -66.5
q34.6826 -26.5 87.0205 -45.5q2.91309 -1 37.8193 -13.5q34.9072 -12.5 53.207 -20.5q124.189 -55 130.744 -163q4.70215 -72 -47.333 -141q-29.498 -40 -70.0352 -69q-101.297 -72 -211.635 -53q-73.8633 13 -131.621 61.5q-57.7588 48.5 -85.6357 118.5
q-3.30078 8 6.51172 23q9.81152 15 25.9922 28.5t30.0742 18q13.8945 4.5 17.1943 -3.5q27.2275 -66 81.7041 -112t117.015 -57t105.306 3.5q42.7686 14.5 57.5176 34.5q27.2363 37 23.8721 90q-5.69141 95 -121.143 147q-17.3008 8 -52.3389 19q-90.2012 32 -128.577 62
t-54.3965 75.5t-0.709961 100.5t68.8584 107q97.0469 92 214.997 80q74.3008 -8 133.821 -53.5t89.5723 -113.5q3.3877 -7 -5.96777 -22.5t-25.5361 -29z" />
    <glyph glyph-name="scaron" unicode="&#x161;" horiz-adv-x="511" 
d="M305.983 785q15.7246 14 30.1182 18.5t18.7812 -2.5l51.9922 -103l59.1221 70q13.3994 16 29.8613 27t24.918 10.5q8.45703 -0.5 9.93164 -6.5q2.95117 -12 -14.8857 -33l-109.458 -131q-51.4229 -62 -64.8857 -33l-66.543 131q-3.3877 7 5.96777 22.5
q9.35645 15.5 25.0801 29.5zM472.943 359.5q-16.6807 -13.5 -29.9434 -16.5t-15.5625 5q-12.9766 46 -47.6348 78.5q-34.6572 32.5 -75.1318 38.5q-40.4756 6 -64.6123 -7q-23.6738 -42 3.21582 -89q23.4131 -41 101.614 -73q53.0762 -22 70.2012 -32
q75.7148 -49 66.9805 -126q-7.33594 -61 -68.2334 -117q-110.834 -101 -234.324 -38q-69.8506 36 -110.291 111q-3.3877 7 5.42383 22q8.8125 15 25.0371 29q16.2236 14 30.6611 19t17.8252 -2q46.5654 -85 127.941 -115q52.3389 -19 96.5635 -5q14.4365 5 17.7871 9
q14.9238 22 9.98535 57q-8.40234 64 -101.991 103q-3.8252 2 -22.2129 9q-52.1631 21 -68.9395 35q-85.2266 66 -46.1807 158q15.2363 37 45.7725 66q77.4727 74 159.423 62q51.3877 -7 89.2832 -42.5q37.8945 -35.5 51.4346 -86.5q2.2998 -8 -7.55566 -23.5t-26.5361 -29z
" />
    <glyph glyph-name="Tcaron" unicode="&#x164;" horiz-adv-x="527" 
d="M293.983 992q15.7246 14 30.1182 18.5t18.7812 -2.5l51.9922 -103l59.1221 70q13.3994 16 29.8613 27t24.918 10.5q8.45703 -0.5 9.93164 -6.5q2.95117 -12 -14.8857 -33l-109.458 -131q-51.4229 -62 -64.8857 -33l-66.543 131q-3.3877 7 5.96777 22.5
q9.35645 15.5 25.0801 29.5zM95.3115 701q3.78711 9 13.9248 22q10.1367 13 27.0986 24t27.9619 11h453q15 0 6.33887 -19q-10.1865 -25 -34.0859 -41t-34.8994 -16h-155l-113.376 -656q-1.96289 -11 -15.3623 -27t-27.1865 -25t-21.9619 -11q-18.4375 -5 -16.0381 11
l121.925 708h-226q-14 0 -6.33887 19z" />
    <glyph glyph-name="tcaron" unicode="&#x165;" horiz-adv-x="416" 
d="M442.277 680.5q16.1807 13.5 30.0303 17.5t16.1504 -4q41.9795 -126 -87.6914 -248q-15.3115 -15 -30.8799 -21.5q-15.5693 -6.5 -21.0879 -1t1.74902 20q7.26855 14.5 23.5801 29.5q16.3994 16 27.6924 36.5t15.5488 52q4.25488 31.5 -8.68359 66.5
q-2.30078 8 7.55469 23.5t26.0371 29zM349.516 74.5q1.16992 -9.5 -10.1865 -25q-11.3555 -15.5 -42.4111 -39q-31.0547 -23.5 -67.3672 -38.5q-71.4492 -28 -101.775 14q-28.7637 37 -4.66797 141l52.3271 301h-76q-15 0 -6.33887 19q10.1875 25 34.1299 41.5
q23.9434 16.5 34.9434 16.5h27l29.9561 171q1.96191 11 15.3613 27t27.1875 25q13.7871 9 21.9619 11q18.4365 5 16.0381 -11l-38.5049 -223h87q15 0 6.25098 -20q-10.1865 -25 -34.0859 -41t-34.8994 -16h-38l-43.8662 -250q-0.0869141 -1 -0.174805 -2
q-21.8721 -90 2.50488 -120q22.2881 -31 59.6875 -15q17.7002 8 37.5117 23t32.5303 17.5t13.8877 -7z" />
    <glyph glyph-name="Umacron" unicode="&#x16a;" horiz-adv-x="620" 
d="M296.665 812q3.78711 9 13.9238 22t27.0986 24q16.9629 11 27.9629 11h218q15 0 6.33789 -19q-10.1865 -25 -34.0859 -41t-34.8994 -16h-218q-14 0 -6.33789 19zM632.148 722q13.3994 16 27.1426 24.5q13.7441 8.5 21.9189 10.5q18.4375 5 16.0381 -11l-100.505 -566
q-0.261719 -3 -1.52441 -6q-20.4609 -51 -55.1338 -93q-60.2979 -72 -132.028 -97.5t-156.38 -21.5q-203.951 12 -160.371 213l87.3936 519q1.96289 11 15.3623 27t26.6865 25t22.4619 11q18.4375 5 16.0381 -11l-87.5684 -521q-38.4814 -177 144.644 -187
q71.6504 -4 115.006 11.5q43.3564 15.5 58.4307 33.5t26.6982 48l100.241 563q2.0498 12 15.4492 28z" />
    <glyph glyph-name="umacron" unicode="&#x16b;" horiz-adv-x="509" 
d="M227.665 605q3.78711 9 13.9238 22t27.0986 24q16.9629 11 27.9629 11h218q15 0 6.33789 -19q-10.1865 -25 -34.0859 -41t-34.8994 -16h-218q-14 0 -6.33789 19zM428.825 -2q-13.3994 -16 -27.1426 -24.5q-13.7441 -8.5 -22.9189 -10.5q-18.3496 -4 -14.9502 12
l12.6846 65q-30.7988 -32 -72.8096 -55q-42.0117 -23 -84.0117 -23q-171.175 -2 -125.359 236l48.4023 279q1.96191 11 15.4053 27.5t27.1865 25q13.7441 8.5 21.9189 10.5q18.4375 5 16.0381 -11l-48.4902 -280q-41.542 -212 105.545 -211q29 0 43.7002 8
q36.749 20 74.6211 110q0.0869141 1 0.261719 3l61.9014 319q2.0498 12 15.4053 27.5t27.0986 24q13.7441 8.5 22.9189 10.5q18.3496 4 15.0381 -11l-97.082 -504q-1.96191 -11 -15.3613 -27z" />
    <glyph glyph-name="Ubreve" unicode="&#x16c;" horiz-adv-x="620" 
d="M534.485 946q13.8994 16 27.1426 24.5t21.875 10q8.63086 1.5 12.3252 -2q3.69336 -3.5 2.08105 -10.5q-12.9854 -57 -46.5713 -98q-61.5596 -75 -140.385 -73q-112.737 3 -91.5039 120q1.96191 11 15.4053 27.5q13.4424 16.5 27.1865 25q13.7432 8.5 21.918 10.5
q18.4375 5 16.0381 -11q-17.1338 -93 73.6035 -96q16.9121 -1 29.2627 3q9.39941 16 13.5605 35q4.16211 19 18.0615 35zM632.148 722q13.3994 16 27.1426 24.5q13.7441 8.5 21.9189 10.5q18.4375 5 16.0381 -11l-100.505 -566q-0.261719 -3 -1.52441 -6
q-20.4609 -51 -55.1338 -93q-60.2979 -72 -132.028 -97.5t-156.38 -21.5q-203.951 12 -160.371 213l87.3936 519q1.96289 11 15.3623 27t26.6865 25t22.4619 11q18.4375 5 16.0381 -11l-87.5684 -521q-38.4814 -177 144.644 -187q71.6504 -4 115.006 11.5
q43.3564 15.5 58.4307 33.5t26.6982 48l100.241 563q2.0498 12 15.4492 28z" />
    <glyph glyph-name="ubreve" unicode="&#x16d;" horiz-adv-x="509" 
d="M465.485 739q13.8994 16 27.1426 24.5t21.875 10q8.63086 1.5 12.3252 -2q3.69336 -3.5 2.08105 -10.5q-12.9854 -57 -46.5713 -98q-61.5596 -75 -140.385 -73q-112.737 3 -91.5039 120q1.96191 11 15.4053 27.5q13.4424 16.5 27.1865 25q13.7432 8.5 21.918 10.5
q18.4375 5 16.0381 -11q-17.1338 -93 73.6035 -96q16.9121 -1 29.2627 3q9.39941 16 13.5605 35q4.16211 19 18.0615 35zM428.825 -2q-13.3994 -16 -27.1426 -24.5q-13.7441 -8.5 -22.9189 -10.5q-18.3496 -4 -14.9502 12l12.6846 65q-30.7988 -32 -72.8096 -55
q-42.0117 -23 -84.0117 -23q-171.175 -2 -125.359 236l48.4023 279q1.96191 11 15.4053 27.5t27.1865 25q13.7441 8.5 21.9189 10.5q18.4375 5 16.0381 -11l-48.4902 -280q-41.542 -212 105.545 -211q29 0 43.7002 8q36.749 20 74.6211 110q0.0869141 1 0.261719 3
l61.9014 319q2.0498 12 15.4053 27.5t27.0986 24q13.7441 8.5 22.9189 10.5q18.3496 4 15.0381 -11l-97.082 -504q-1.96191 -11 -15.3613 -27z" />
    <glyph glyph-name="Uring" unicode="&#x16e;" horiz-adv-x="620" 
d="M486.081 1061q86.6504 -4 81.3037 -88q-3.41113 -39 -13.3789 -61.5t-25.6299 -41.5q-53.6855 -65 -119.335 -61q-86.4756 6 -78.5547 108q3.11133 47 33.3477 84q52.5977 64 122.247 60zM481.688 885q27.0088 103 -69.2529 100q-0.525391 -6 -1.0498 -12
q-6.25977 -83 62.3027 -88h8zM632.148 722q13.3994 16 27.1426 24.5q13.7441 8.5 21.9189 10.5q18.4375 5 16.0381 -11l-100.505 -566q-0.261719 -3 -1.52441 -6q-20.4609 -51 -55.1338 -93q-60.2979 -72 -132.028 -97.5t-156.38 -21.5q-203.951 12 -160.371 213
l87.3936 519q1.96289 11 15.3623 27t26.6865 25t22.4619 11q18.4375 5 16.0381 -11l-87.5684 -521q-38.4814 -177 144.644 -187q71.6504 -4 115.006 11.5q43.3564 15.5 58.4307 33.5t26.6982 48l100.241 563q2.0498 12 15.4492 28z" />
    <glyph glyph-name="uring" unicode="&#x16f;" horiz-adv-x="509" 
d="M417.081 854q86.6504 -4 81.3037 -88q-3.41113 -39 -13.3789 -61.5t-25.6299 -41.5q-53.6855 -65 -119.335 -61q-86.4756 6 -78.5547 108q3.11133 47 33.3477 84q52.5977 64 122.247 60zM412.688 678q27.0088 103 -69.2529 100q-0.525391 -6 -1.0498 -12
q-6.25977 -83 62.3027 -88h8zM428.825 -2q-13.3994 -16 -27.1426 -24.5q-13.7441 -8.5 -22.9189 -10.5q-18.3496 -4 -14.9502 12l12.6846 65q-30.7988 -32 -72.8096 -55q-42.0117 -23 -84.0117 -23q-171.175 -2 -125.359 236l48.4023 279q1.96191 11 15.4053 27.5
t27.1865 25q13.7441 8.5 21.9189 10.5q18.4375 5 16.0381 -11l-48.4902 -280q-41.542 -212 105.545 -211q29 0 43.7002 8q36.749 20 74.6211 110q0.0869141 1 0.261719 3l61.9014 319q2.0498 12 15.4053 27.5t27.0986 24q13.7441 8.5 22.9189 10.5q18.3496 4 15.0381 -11
l-97.082 -504q-1.96191 -11 -15.3613 -27z" />
    <glyph glyph-name="Uhungarumlaut" unicode="&#x170;" horiz-adv-x="620" 
d="M482.039 1015.5q13.8936 4.5 17.7373 -3q3.84473 -7.5 -5.46777 -22.5l-79.6328 -133q-9.31152 -15 -25.5361 -29t-30.1182 -18.5t-17.7373 3t5.46777 22.5l79.6328 133q9.31152 15 25.5361 29t30.1182 18.5zM623.495 1015q14.4375 5 18.3252 -2t-4.42383 -22
l-82.332 -141q-8.3125 -15 -25.0371 -29t-31.1611 -19q-14.4375 -5 -18.3252 2t4.42383 22l82.332 141q8.3125 15 25.0371 29t31.1611 19zM632.148 722q13.3994 16 27.1426 24.5q13.7441 8.5 21.9189 10.5q18.4375 5 16.0381 -11l-100.505 -566q-0.261719 -3 -1.52441 -6
q-20.4609 -51 -55.1338 -93q-60.2979 -72 -132.028 -97.5t-156.38 -21.5q-203.951 12 -160.371 213l87.3936 519q1.96289 11 15.3623 27t26.6865 25t22.4619 11q18.4375 5 16.0381 -11l-87.5684 -521q-38.4814 -177 144.644 -187q71.6504 -4 115.006 11.5
q43.3564 15.5 58.4307 33.5t26.6982 48l100.241 563q2.0498 12 15.4492 28z" />
    <glyph glyph-name="uhungarumlaut" unicode="&#x171;" horiz-adv-x="509" 
d="M414.039 808.5q13.8936 4.5 17.7373 -3q3.84473 -7.5 -5.46777 -22.5l-79.6328 -133q-9.31152 -15 -25.5361 -29t-30.1182 -18.5t-17.7373 3t5.46777 22.5l79.6328 133q9.31152 15 25.5361 29t30.1182 18.5zM555.495 808q14.4375 5 18.3252 -2t-4.42383 -22l-82.332 -141
q-8.3125 -15 -25.0371 -29t-31.1611 -19q-14.4375 -5 -18.3252 2t4.42383 22l82.332 141q8.3125 15 25.0371 29t31.1611 19zM428.825 -2q-13.3994 -16 -27.1426 -24.5q-13.7441 -8.5 -22.9189 -10.5q-18.3496 -4 -14.9502 12l12.6846 65q-30.7988 -32 -72.8096 -55
q-42.0117 -23 -84.0117 -23q-171.175 -2 -125.359 236l48.4023 279q1.96191 11 15.4053 27.5t27.1865 25q13.7441 8.5 21.9189 10.5q18.4375 5 16.0381 -11l-48.4902 -280q-41.542 -212 105.545 -211q29 0 43.7002 8q36.749 20 74.6211 110q0.0869141 1 0.261719 3
l61.9014 319q2.0498 12 15.4053 27.5t27.0986 24q13.7441 8.5 22.9189 10.5q18.3496 4 15.0381 -11l-97.082 -504q-1.96191 -11 -15.3613 -27z" />
    <glyph glyph-name="Uogonek" unicode="&#x172;" horiz-adv-x="620" 
d="M352.192 -140q-2.78711 -9 -13.3809 -21.5q-10.5928 -12.5 -27.0986 -24t-28.5938 -12.5q-52.2617 -3 -74.3623 13t-8.51465 57q24.8594 67 87.5449 132q14.3125 15 30.5557 23.5t23.9375 5q7.69336 -3.5 2.46875 -17.5t-28.2793 -37.5q-23.0557 -23.5 -38.5547 -63.5
q-5.48633 -17 9.09473 -27.5q14.582 -10.5 56.7568 -8.5q15.0879 1 8.42578 -18zM632.148 722q13.3994 16 27.1426 24.5q13.7441 8.5 21.9189 10.5q18.4375 5 16.0381 -11l-100.505 -566q-0.261719 -3 -1.52441 -6q-20.4609 -51 -55.1338 -93q-60.2979 -72 -132.028 -97.5
t-156.38 -21.5q-203.951 12 -160.371 213l87.3936 519q1.96289 11 15.3623 27t26.6865 25t22.4619 11q18.4375 5 16.0381 -11l-87.5684 -521q-38.4814 -177 144.644 -187q71.6504 -4 115.006 11.5q43.3564 15.5 58.4307 33.5t26.6982 48l100.241 563q2.0498 12 15.4492 28z
" />
    <glyph glyph-name="uogonek" unicode="&#x173;" horiz-adv-x="509" 
d="M282.192 -140q-2.78711 -9 -13.3809 -21.5q-10.5928 -12.5 -27.0986 -24t-28.5938 -12.5q-52.2617 -3 -74.3623 13t-8.51465 57q24.8594 67 87.5449 132q14.3125 15 30.5557 23.5t23.9375 5q7.69336 -3.5 2.46875 -17.5t-28.2793 -37.5q-23.0557 -23.5 -38.5547 -63.5
q-5.48633 -17 9.09473 -27.5q14.582 -10.5 56.7568 -8.5q15.0879 1 8.42578 -18zM428.825 -2q-13.3994 -16 -27.1426 -24.5q-13.7441 -8.5 -22.9189 -10.5q-18.3496 -4 -14.9502 12l12.6846 65q-30.7988 -32 -72.8096 -55q-42.0117 -23 -84.0117 -23
q-171.175 -2 -125.359 236l48.4023 279q1.96191 11 15.4053 27.5t27.1865 25q13.7441 8.5 21.9189 10.5q18.4375 5 16.0381 -11l-48.4902 -280q-41.542 -212 105.545 -211q29 0 43.7002 8q36.749 20 74.6211 110q0.0869141 1 0.261719 3l61.9014 319q2.0498 12 15.4053 27.5
t27.0986 24q13.7441 8.5 22.9189 10.5q18.3496 4 15.0381 -11l-97.082 -504q-1.96191 -11 -15.3613 -27z" />
    <glyph glyph-name="Ydieresis" unicode="&#x178;" horiz-adv-x="539" 
d="M267.852 849q0.923828 22 16.2354 37q15.3125 15 34.3125 15t31.6875 -15q12.6885 -15 10.7646 -37q-1.9248 -22 -17.2363 -37q-15.3125 -15 -34.3125 -15t-31.6875 15q-12.6885 15 -9.76367 37zM425.501 845q0.924805 22 16.2363 37q15.3125 15 34.3125 15t31.6875 -15
q12.6885 -15 10.7637 -37q-1.92383 -22 -17.2354 -37q-15.3125 -15 -34.3125 -15t-31.6875 15q-12.6885 15 -9.76465 37zM132.679 739.5q16.1816 13.5 30.0312 17.5t17.1504 -4l157.265 -420l270.324 381q11.3115 15 27.9482 28q16.6377 13 29.3564 15.5t13.8877 -7
t-10.1436 -24.5l-318.271 -449l-43.9531 -251q-1.96289 -11 -15.3623 -27t-27.1865 -25t-21.9619 -11q-18.4375 -5 -16.0381 11l45.3906 256l-171.029 457q-3.2998 8 6.55566 23.5t26.0361 29z" />
    <glyph glyph-name="Zacute" unicode="&#x179;" horiz-adv-x="627" 
d="M620.754 966.5q12.7188 2.5 14.4307 -6.5q1.71289 -9 -9.68652 -25q-53.7344 -77 -114.195 -128q-16.2246 -14 -30.6182 -18.5t-17.7373 3t6.01172 23t34.1924 36.5t61.2979 72q10.3115 15 26.9482 28q16.6377 13 29.3564 15.5zM195.312 701q3.78711 9 13.9248 22
q10.1367 13 27.0986 24t27.9619 11h438q15 0 7.33887 -19q-3.78711 -9 -12.75 -20l-563.562 -681h454q15 0 6.33887 -19q-10.1865 -25 -34.0859 -41t-34.8994 -16h-480q-18 0 -3.81348 25q3.6123 7 9.22461 14l563.562 681h-412q-14 0 -6.33887 19z" />
    <glyph glyph-name="zacute" unicode="&#x17a;" horiz-adv-x="530" 
d="M479.754 771.5q12.7188 2.5 14.4307 -6.5q1.71289 -9 -9.68652 -25q-53.7344 -77 -114.195 -128q-16.2246 -14 -30.6182 -18.5t-17.7373 3t6.01172 23t34.1924 36.5t61.2979 72q10.3115 15 26.9482 28q16.6377 13 29.3564 15.5zM142.332 484q3.78711 9 13.9248 22
q10.1367 13 27.0986 24t27.9619 11h336q15 0 7.33887 -19q-3.78711 -9 -14.8369 -21l-394.496 -463h330q15 0 6.33887 -19q-10.1865 -25 -34.0859 -41t-34.8994 -16h-358q-11.9131 1 -9.36328 13t16.8613 27l394.496 463h-308q-14 0 -6.33887 19z" />
    <glyph glyph-name="Zdotaccent" unicode="&#x17b;" horiz-adv-x="627" 
d="M469.521 921q58.7383 -3 44.1836 -66.5q-14.5537 -63.5 -73.2041 -59.5q-52.6494 4 -38.0518 68q14.335 61 67.0723 58zM195.312 701q3.78711 9 13.9248 22q10.1367 13 27.0986 24t27.9619 11h438q15 0 7.33887 -19q-3.78711 -9 -12.75 -20l-563.562 -681h454
q15 0 6.33887 -19q-10.1865 -25 -34.0859 -41t-34.8994 -16h-480q-18 0 -3.81348 25q3.6123 7 9.22461 14l563.562 681h-412q-14 0 -6.33887 19z" />
    <glyph glyph-name="zdotaccent" unicode="&#x17c;" horiz-adv-x="530" 
d="M389.521 714q58.7383 -3 44.1836 -66.5q-14.5537 -63.5 -73.2041 -59.5q-52.6494 4 -38.0518 68q14.335 61 67.0723 58zM142.332 484q3.78711 9 13.9248 22q10.1367 13 27.0986 24t27.9619 11h336q15 0 7.33887 -19q-3.78711 -9 -14.8369 -21l-394.496 -463h330
q15 0 6.33887 -19q-10.1865 -25 -34.0859 -41t-34.8994 -16h-358q-11.9131 1 -9.36328 13t16.8613 27l394.496 463h-308q-14 0 -6.33887 19z" />
    <glyph glyph-name="Zcaron" unicode="&#x17d;" horiz-adv-x="627" 
d="M377.983 992q15.7246 14 30.1182 18.5t18.7812 -2.5l51.9922 -103l59.1221 70q13.3994 16 29.8613 27t24.918 10.5q8.45703 -0.5 9.93164 -6.5q2.95117 -12 -14.8857 -33l-109.458 -131q-51.4229 -62 -64.8857 -33l-66.543 131q-3.3877 7 5.96777 22.5
q9.35645 15.5 25.0801 29.5zM195.312 701q3.78711 9 13.9248 22q10.1367 13 27.0986 24t27.9619 11h438q15 0 7.33887 -19q-3.78711 -9 -12.75 -20l-563.562 -681h454q15 0 6.33887 -19q-10.1865 -25 -34.0859 -41t-34.8994 -16h-480q-18 0 -3.81348 25q3.6123 7 9.22461 14
l563.562 681h-412q-14 0 -6.33887 19z" />
    <glyph glyph-name="zcaron" unicode="&#x17e;" horiz-adv-x="530" 
d="M297.983 785q15.7246 14 30.1182 18.5t18.7812 -2.5l51.9922 -103l59.1221 70q13.3994 16 29.8613 27t24.918 10.5q8.45703 -0.5 9.93164 -6.5q2.95117 -12 -14.8857 -33l-109.458 -131q-51.4229 -62 -64.8857 -33l-66.543 131q-3.3877 7 5.96777 22.5
q9.35645 15.5 25.0801 29.5zM142.332 484q3.78711 9 13.9248 22q10.1367 13 27.0986 24t27.9619 11h336q15 0 7.33887 -19q-3.78711 -9 -14.8369 -21l-394.496 -463h330q15 0 6.33887 -19q-10.1865 -25 -34.0859 -41t-34.8994 -16h-358q-11.9131 1 -9.36328 13t16.8613 27
l394.496 463h-308q-14 0 -6.33887 19z" />
    <glyph glyph-name="uni01C4" unicode="&#x1c4;" horiz-adv-x="1195" 
d="M464.747 992q16.9492 14 31.7363 18.5t18.5625 -2.5l42.9834 -103l65.2441 70q14.7988 16 32.2236 27q17.4238 11 25.8359 10.5q8.41309 -0.5 9.36328 -6.5q1.90137 -12 -17.7725 -33l-120.915 -131q-56.8457 -62 -67.7725 -33l-55.085 131q-2.77539 7 7.93555 22.5
q10.7119 15.5 27.6602 29.5zM256.623 701q4.57422 9 15.8496 22q11.2734 13 29.1973 24t28.9238 11h438q15 0 5.67773 -19q-4.57422 -9 -14.5 -20l-623.125 -681h454q15 0 4.67773 -19q-12.373 -25 -37.6719 -41t-36.2988 -16h-480q-18 0 -1.62695 25q4.22461 7 10.4492 14
l623.125 681h-412q-14 0 -4.67773 19zM593.726 -26l132.974 720q9.32422 38 41.8984 56q12.6123 7 27.6992 8q456.362 27 409.552 -371q-18.1201 -150 -105.76 -254.5t-210.964 -142.5q-123.323 -38 -287.448 -28q-10 0 -7.95117 12zM676.236 37q145.3 -8 240.968 22.5
t134.866 78.5q57.0342 69 73.0547 195q20.2188 174 -61.1279 261.5t-268.172 89.5z" />
    <glyph glyph-name="uni01C5" unicode="&#x1c5;" horiz-adv-x="1058" 
d="M366.643 785q16.9482 14 31.7354 18.5q14.7881 4.5 18.5635 -2.5l42.9834 -103l65.2441 70q14.7988 16 32.2227 27t25.8369 10.5t9.3623 -6.5q1.90234 -12 -17.7715 -33l-120.916 -131q-56.8457 -62 -67.7715 -33l-55.0859 131q-2.77539 7 7.93555 22.5
q10.7129 15.5 27.6611 29.5zM184.664 484q4.57422 9 15.8496 22q11.2734 13 29.1973 24t28.9238 11h336q15 0 5.67773 -19q-4.57422 -9 -16.6738 -21l-434.992 -463h330q15 0 4.67773 -19q-12.373 -25 -37.6719 -41t-36.2988 -16h-358q-11.8262 1 -8.22656 13t19.2227 27
l434.992 463h-308q-14 0 -4.67773 19zM456.726 -26l132.974 720q9.32422 38 41.8984 56q12.6123 7 27.6992 8q456.362 27 409.552 -371q-18.1201 -150 -105.76 -254.5t-210.964 -142.5q-123.323 -38 -287.448 -28q-10 0 -7.95117 12zM539.236 37q145.3 -8 240.968 22.5
t134.866 78.5q57.0342 69 73.0547 195q20.2188 174 -61.1279 261.5t-268.172 89.5z" />
    <glyph glyph-name="uni01C7" unicode="&#x1c7;" horiz-adv-x="916" 
d="M494.648 722q13.8994 16 27.1426 24.5q13.2441 8.5 21.9189 10.5t12.9121 -1q4.23828 -3 2.53809 -11l-114.029 -572q-13.0352 -69 -53.3203 -118q-75.2217 -94 -189.134 -93q-168.913 1 -162.006 160q0.874023 10 12.7734 26t25.7305 25.5t23.0938 12.5
q19.6123 7 19.2998 -8q-5.15723 -139 143.755 -140q51 0 72.3125 15q6.6123 7 15.0361 29t12.0859 41l114.029 572q1.96191 11 15.8613 27zM505.677 -38q-11 0 -8.95117 12l123.974 720q1.96289 11 15.3623 27t27.1865 25t21.9619 11q18.4375 5 16.0381 -11l-121.925 -708
h352q15 0 6.33887 -19q-10.1865 -25 -34.0859 -41t-34.8994 -16h-363z" />
    <glyph glyph-name="uni01C8" unicode="&#x1c8;" horiz-adv-x="696" 
d="M40.5088 -68.5q15.7686 14.5 30.8369 21t20.5439 0.5q43.9766 -46 78.626 -50q10.7988 32 20.6094 87l99.4053 542q2.0498 12 15.4053 27.5t27.1426 24.5q13.7881 9 21.9629 11q18.4375 5 15.9502 -12l-99.3174 -541q-0.4375 -5 -4.75586 -31.5
q-4.31738 -26.5 -5.97363 -34q-1.65527 -7.5 -7.99219 -28.5t-13.2988 -32q-40.5977 -64 -95.4346 -85q-22.7002 -8 -37.7002 -8t-34.0371 11q-23.7764 14 -56.7148 49q-5.47461 6 1.74902 20q7.22461 14 22.9932 28.5zM327.249 706q12.8994 16 26.6865 25t22.9619 11
q18.4375 5 16.0381 -11l-11.1221 -70q-1.96191 -11 -14.8613 -27t-26.6865 -25t-22.9629 -11q-18.4365 -5 -16.0371 11l11.1221 70q1.96191 11 14.8613 27zM285.677 -38q-11 0 -8.95117 12l123.974 720q1.96289 11 15.3623 27t27.1865 25t21.9619 11q18.4375 5 16.0381 -11
l-121.925 -708h352q15 0 6.33887 -19q-10.1865 -25 -34.0859 -41t-34.8994 -16h-363z" />
    <glyph glyph-name="uni01CA" unicode="&#x1ca;" horiz-adv-x="1135" 
d="M494.648 722q13.8994 16 27.1426 24.5q13.2441 8.5 21.9189 10.5t12.9121 -1q4.23828 -3 2.53809 -11l-114.029 -572q-13.0352 -69 -53.3203 -118q-75.2217 -94 -189.134 -93q-168.913 1 -162.006 160q0.874023 10 12.7734 26t25.7305 25.5t23.0938 12.5
q19.6123 7 19.2998 -8q-5.15723 -139 143.755 -140q51 0 72.3125 15q6.6123 7 15.0361 29t12.0859 41l114.029 572q1.96191 11 15.8613 27zM559.825 -2q-13.3994 -16 -27.1426 -24.5q-13.7441 -8.5 -21.9189 -10.5q-18.4375 -5 -16.0381 11l132.974 720
q42.1113 47 59.4424 56.5t20.7188 2.5l243.521 -600l94.3174 541q1.96289 11 15.4053 27.5q13.4434 16.5 27.1865 25q13.7441 8.5 21.9189 10.5q18.4375 5 16.0381 -11l-125.974 -720q-2.0498 -12 -22.3623 -27q-20.3115 -15 -39.0117 -23l-18.7871 -9l-244.259 603
l-100.58 -544q-2.0498 -12 -15.4492 -28z" />
    <glyph glyph-name="uni01CB" unicode="&#x1cb;" horiz-adv-x="915" 
d="M40.5088 -68.5q15.7686 14.5 30.8369 21t20.5439 0.5q43.9766 -46 78.626 -50q10.7988 32 20.6094 87l99.4053 542q2.0498 12 15.4053 27.5t27.1426 24.5q13.7881 9 21.9629 11q18.4375 5 15.9502 -12l-99.3174 -541q-0.4375 -5 -4.75586 -31.5
q-4.31738 -26.5 -5.97363 -34q-1.65527 -7.5 -7.99219 -28.5t-13.2988 -32q-40.5977 -64 -95.4346 -85q-22.7002 -8 -37.7002 -8t-34.0371 11q-23.7764 14 -56.7148 49q-5.47461 6 1.74902 20q7.22461 14 22.9932 28.5zM327.249 706q12.8994 16 26.6865 25t22.9619 11
q18.4375 5 16.0381 -11l-11.1221 -70q-1.96191 -11 -14.8613 -27t-26.6865 -25t-22.9629 -11q-18.4365 -5 -16.0371 11l11.1221 70q1.96191 11 14.8613 27zM339.825 -2q-13.3994 -16 -27.1426 -24.5q-13.7441 -8.5 -21.9189 -10.5q-18.4375 -5 -16.0381 11l132.974 720
q42.1113 47 59.4424 56.5t20.7188 2.5l243.521 -600l94.3174 541q1.96289 11 15.4053 27.5q13.4434 16.5 27.1865 25q13.7441 8.5 21.9189 10.5q18.4375 5 16.0381 -11l-125.974 -720q-2.0498 -12 -22.3623 -27q-20.3115 -15 -39.0117 -23l-18.7871 -9l-244.259 603
l-100.58 -544q-2.0498 -12 -15.4492 -28z" />
    <glyph glyph-name="uni01F1" unicode="&#x1f1;" horiz-adv-x="1195" 
d="M195.312 701q3.78711 9 13.9248 22q10.1367 13 27.0986 24t27.9619 11h438q15 0 7.33887 -19q-3.78711 -9 -12.75 -20l-563.562 -681h454q15 0 6.33887 -19q-10.1865 -25 -34.0859 -41t-34.8994 -16h-480q-18 0 -3.81348 25q3.6123 7 9.22461 14l563.562 681h-412
q-14 0 -6.33887 19zM593.726 -26l132.974 720q9.32422 38 41.8984 56q12.6123 7 27.6992 8q456.362 27 409.552 -371q-18.1201 -150 -105.76 -254.5t-210.964 -142.5q-123.323 -38 -287.448 -28q-10 0 -7.95117 12zM676.236 37q145.3 -8 240.968 22.5t134.866 78.5
q57.0342 69 73.0547 195q20.2188 174 -61.1279 261.5t-268.172 89.5z" />
    <glyph glyph-name="uni01F2" unicode="&#x1f2;" horiz-adv-x="1058" 
d="M142.332 484q3.78711 9 13.9248 22q10.1367 13 27.0986 24t27.9619 11h336q15 0 7.33887 -19q-3.78711 -9 -14.8369 -21l-394.496 -463h330q15 0 6.33887 -19q-10.1865 -25 -34.0859 -41t-34.8994 -16h-358q-11.9131 1 -9.36328 13t16.8613 27l394.496 463h-308
q-14 0 -6.33887 19zM456.726 -26l132.974 720q9.32422 38 41.8984 56q12.6123 7 27.6992 8q456.362 27 409.552 -371q-18.1201 -150 -105.76 -254.5t-210.964 -142.5q-123.323 -38 -287.448 -28q-10 0 -7.95117 12zM539.236 37q145.3 -8 240.968 22.5t134.866 78.5
q57.0342 69 73.0547 195q20.2188 174 -61.1279 261.5t-268.172 89.5z" />
    <glyph glyph-name="uni01F4" unicode="&#x1f4;" horiz-adv-x="637" 
d="M631.754 966.5q12.7188 2.5 14.4307 -6.5q1.71289 -9 -9.68652 -25q-53.7344 -77 -114.195 -128q-16.2246 -14 -30.6182 -18.5t-17.7373 3t6.01172 23t34.1924 36.5t61.2979 72q10.3115 15 26.9482 28q16.6377 13 29.3564 15.5zM559.16 59q-105.396 -96 -225.483 -97
q-70 0 -126.939 35q-56.9385 35 -84.4287 98q-30.877 70 -22.918 161q5.16016 59 27.1953 128q60.9678 194 193.064 298q95.5596 75 190.56 75q67 0 111.026 -34q80.5771 -62 71.918 -161q-0.787109 -9 -2.74902 -20t-15.3613 -27t-27.1436 -24.5
q-13.7432 -8.5 -22.418 -10.5t-12.9121 1q-4.23828 3 -2.58203 10.5t2.26855 14.5q3.23535 37 -10.8965 75.5q-14.1328 38.5 -49.7715 65.5q-45.0264 34 -103.026 34q-68 0 -118.498 -40q-22.5752 -18 -47.5488 -52q-46.6846 -65 -72.0947 -144q-25.4092 -79 -30.2197 -134
q-7.34668 -84 20.2305 -146q55.8916 -127 194.892 -127q68 0 119.062 35q36.0996 24 57.0352 69q1.2627 3 4.52441 6l27.207 151l-236.737 3q-15 0 -6.33789 19q10.1865 25 34.0859 41t34.8994 16l247.737 -3q11 0 8.9502 -12l-61.4746 -337q-1.96289 -11 -15.4053 -27.5
q-13.4434 -16.5 -27.1865 -25q-13.7441 -8.5 -21.9189 -10.5q-18.4375 -5 -16.0381 11z" />
    <glyph glyph-name="uni01F5" unicode="&#x1f5;" horiz-adv-x="508" 
d="M505.754 759.5q12.7188 2.5 14.4307 -6.5q1.71289 -9 -9.68652 -25q-53.7344 -77 -114.195 -128q-16.2246 -14 -30.6182 -18.5t-17.7373 3t6.01172 23t34.1924 36.5t61.2979 72q10.3115 15 26.9482 28q16.6377 13 29.3564 15.5zM502.519 509q22.1865 25 37.5371 29
q25.6123 7 23.2998 -8q-48.4258 -325 -64.5479 -395q-15.2598 -83 -38.5068 -143q-23.248 -60 -68.6025 -115.5t-101.716 -82.5t-111.273 -26q-112.913 1 -148.878 70q-3.3877 7 5.46777 22.5t25.0361 29t30.6182 18.5t18.8252 -2q30.665 -61 131.577 -62
q71.9131 -1 102.324 38q42.6348 53 68.9561 171q-57.5977 -64 -112.804 -83.5q-55.2051 -19.5 -100.068 -6.5q-139.501 40 -57.1367 330q27.3965 96 80.8193 158q91.2705 106 208.871 90q44.4756 -6 70.2012 -32zM433.432 165q13.7344 77 12.7344 77q-3.7373 3 -2.03809 11
q43.1436 196 -78.457 212q-29.6504 4 -52.0879 -1q-31.5244 -6 -42.6621 -19q-27.7988 -32 -50.9707 -114t-26.6816 -145q-4.8457 -124 75.1426 -147q61.4258 -18 99.0117 23q28.7109 31 60.1338 93q2.4375 5 5.875 10z" />
    <glyph glyph-name="uni0200" unicode="&#x200;" horiz-adv-x="650" 
d="M278.965 997.5q16.1807 13.5 30.0742 18t17.1943 -3.5l56.0176 -137q3.2998 -8 -6.51172 -23q-9.8125 -15 -25.9932 -28.5t-30.0742 -18t-17.1934 3.5l-56.0176 137q-3.30078 8 6.51172 23q9.81152 15 25.9922 28.5zM414.64 999.5q16.6807 13.5 29.9873 17
q13.3057 3.5 15.5186 -5.5l38.3672 -133q2.30078 -8 -7.55469 -23.5q-9.85645 -15.5 -26.4932 -28.5t-29.9863 -17q-13.3506 -4 -15.5635 5l-38.3672 133q-2.2998 8 7.55566 23.5t26.5361 29zM66.8955 -35.5q-14.4814 -5.5 -19.4131 1t3.29297 20.5l392.974 720l33.0615 35
q40.0605 35 42.874 10l87.0264 -720q1.21289 -9 -10.1865 -25t-27.9922 -28.5q-16.5938 -12.5 -29.3125 -15q-12.7178 -2.5 -13.9307 6.5l-26.9717 229h-3h-273l-101.093 -184q-8.3125 -15 -24.0801 -29.5q-15.7686 -14.5 -30.249 -20zM488.965 274l-41.4375 338
l-183.562 -338h225z" />
    <glyph glyph-name="uni0201" unicode="&#x201;" horiz-adv-x="516" 
d="M188.965 790.5q16.1807 13.5 30.0742 18t17.1943 -3.5l56.0176 -137q3.2998 -8 -6.51172 -23q-9.8125 -15 -25.9932 -28.5t-30.0742 -18t-17.1934 3.5l-56.0176 137q-3.30078 8 6.51172 23q9.81152 15 25.9922 28.5zM324.64 792.5q16.6807 13.5 29.9873 17
q13.3057 3.5 15.5186 -5.5l38.3672 -133q2.30078 -8 -7.55469 -23.5q-9.85645 -15.5 -26.4932 -28.5t-29.9863 -17q-13.3506 -4 -15.5635 5l-38.3672 133q-2.2998 8 7.55566 23.5t26.5361 29zM514.292 60.5q1.16895 -9.5 -10.7305 -25.5t-38.6494 -36
q-26.749 -20 -55.7109 -31q-56.9238 -22 -66.251 20q-4.5127 17 0.510742 63q-57.5107 -63 -112.172 -82q-54.6621 -19 -99.5254 -6q-139.501 40 -57.1367 330q27.3965 96 80.8193 158q91.2705 106 208.871 90q49.4756 -6 74.7646 -37q25.7109 31 51.2354 37
q8.1748 2 12.3691 -1.5t2.49414 -11.5q-94.9971 -423 -82.6328 -476q5.90137 -24 24.6885 -15q8.34961 4 24.4434 16.5q16.0928 12.5 28.7676 14.5t13.8447 -7.5zM357.207 151q13.9971 80 18.9209 102q43.1436 196 -78.457 212q-29.6504 4 -52.0879 -1
q-30.5244 -6 -42.6621 -19q-27.7988 -32 -50.9707 -114t-26.6816 -145q-4.8457 -124 75.1426 -147q61.4258 -18 99.0117 23q27.624 30 57.7842 89z" />
    <glyph glyph-name="uni0202" unicode="&#x202;" horiz-adv-x="650" 
d="M373.064 844q-12.3994 -16 -25.7744 -26t-22.6367 -13q-20.6123 -7 -20.3877 7q0.661133 19 2.06055 35q2.23633 37 39.9102 79q45.373 50 85.7227 54q29.2627 3 59.6504 -4q83.3379 -19 58.2422 -123q-3.0498 -12 -16.9053 -27.5q-13.8564 -15.5 -27.5996 -24
t-21.874 -10q-8.13184 -1.5 -11.8252 2q-3.69434 3.5 -1.99414 11.5q19.084 81 -46.6914 95q-18.6504 4 -33.6504 4q-3.31152 -15 -3.58008 -29.5q-0.267578 -14.5 -12.667 -30.5zM66.8955 -35.5q-14.4814 -5.5 -19.4131 1t3.29297 20.5l392.974 720l33.0615 35
q40.0605 35 42.874 10l87.0264 -720q1.21289 -9 -10.1865 -25t-27.9922 -28.5q-16.5938 -12.5 -29.3125 -15q-12.7178 -2.5 -13.9307 6.5l-26.9717 229h-3h-273l-101.093 -184q-8.3125 -15 -24.0801 -29.5q-15.7686 -14.5 -30.249 -20zM488.965 274l-41.4375 338
l-183.562 -338h225z" />
    <glyph glyph-name="uni0203" unicode="&#x203;" horiz-adv-x="516" 
d="M283.064 637q-12.3994 -16 -25.7744 -26t-22.6367 -13q-20.6123 -7 -20.3877 7q0.661133 19 2.06055 35q2.23633 37 39.9102 79q45.373 50 85.7227 54q29.2627 3 59.6504 -4q83.3379 -19 58.2422 -123q-3.0498 -12 -16.9053 -27.5q-13.8564 -15.5 -27.5996 -24
t-21.874 -10q-8.13184 -1.5 -11.8252 2q-3.69434 3.5 -1.99414 11.5q19.084 81 -46.6914 95q-18.6504 4 -33.6504 4q-3.31152 -15 -3.58008 -29.5q-0.267578 -14.5 -12.667 -30.5zM514.292 60.5q1.16895 -9.5 -10.7305 -25.5t-38.6494 -36q-26.749 -20 -55.7109 -31
q-56.9238 -22 -66.251 20q-4.5127 17 0.510742 63q-57.5107 -63 -112.172 -82q-54.6621 -19 -99.5254 -6q-139.501 40 -57.1367 330q27.3965 96 80.8193 158q91.2705 106 208.871 90q49.4756 -6 74.7646 -37q25.7109 31 51.2354 37q8.1748 2 12.3691 -1.5t2.49414 -11.5
q-94.9971 -423 -82.6328 -476q5.90137 -24 24.6885 -15q8.34961 4 24.4434 16.5q16.0928 12.5 28.7676 14.5t13.8447 -7.5zM357.207 151q13.9971 80 18.9209 102q43.1436 196 -78.457 212q-29.6504 4 -52.0879 -1q-30.5244 -6 -42.6621 -19q-27.7988 -32 -50.9707 -114
t-26.6816 -145q-4.8457 -124 75.1426 -147q61.4258 -18 99.0117 23q27.624 30 57.7842 89z" />
    <glyph glyph-name="uni0204" unicode="&#x204;" horiz-adv-x="576" 
d="M274.965 997.5q16.1807 13.5 30.0742 18t17.1943 -3.5l56.0176 -137q3.2998 -8 -6.51172 -23q-9.8125 -15 -25.9932 -28.5t-30.0742 -18t-17.1934 3.5l-56.0176 137q-3.30078 8 6.51172 23q9.81152 15 25.9922 28.5zM410.64 999.5q16.6807 13.5 29.9873 17
q13.3057 3.5 15.5186 -5.5l38.3672 -133q2.30078 -8 -7.55469 -23.5q-9.85645 -15.5 -26.4932 -28.5t-29.9863 -17q-13.3506 -4 -15.5635 5l-38.3672 133q-2.2998 8 7.55566 23.5t26.5361 29zM647.297 758q10 0 9.12598 -10q-0.961914 -11 -13.8613 -27t-29.9053 -27.5
t-28.0059 -11.5h-337l-48.4902 -280h341q15 0 6.33789 -19q-10.1865 -25 -34.0859 -41t-34.8994 -16h-292l-49.1895 -288h385q15 0 6.33887 -19q-10.1865 -25 -34.0859 -41t-34.8994 -16h-393q-7.08789 -1 -10.2812 2.5q-3.19434 3.5 -1.49512 11.5l123.799 718
q1.96289 11 15.4492 28q24.5361 29 49.0615 35q5.08691 1 7.08691 1h4h394z" />
    <glyph glyph-name="uni0205" unicode="&#x205;" horiz-adv-x="526" 
d="M236.965 790.5q16.1807 13.5 30.0742 18t17.1943 -3.5l56.0176 -137q3.2998 -8 -6.51172 -23q-9.8125 -15 -25.9932 -28.5t-30.0742 -18t-17.1934 3.5l-56.0176 137q-3.30078 8 6.51172 23q9.81152 15 25.9922 28.5zM372.64 792.5q16.6807 13.5 29.9873 17
q13.3057 3.5 15.5186 -5.5l38.3672 -133q2.30078 -8 -7.55469 -23.5q-9.85645 -15.5 -26.4932 -28.5t-29.9863 -17q-13.3506 -4 -15.5635 5l-38.3672 133q-2.2998 8 7.55566 23.5t26.5361 29zM163.467 234q-20.1807 -185 143.856 -196q34.7383 -3 63.1748 2
q36.5254 6 41.2246 14q9.3125 15 26.0371 29t30.1182 18.5t17.6934 -3.5q5.86328 -13 -23.1104 -47t-58.1797 -53.5q-29.2051 -19.5 -55.8174 -26.5q-59.3994 -16 -105.787 -9q-195.863 13 -155.222 249q12.3848 73 33.0635 126.5q20.6797 53.5 59.79 100.5
q89.4463 108 208.009 103q188.388 -7 136.047 -251q-12.498 -40 -44.9854 -57q-12.6123 -7 -26.5244 -6zM177.026 309q7.1748 2 11.1748 2l265.476 -6q10.5566 155 -129.006 160q-67.7383 3 -93.5371 -29q-33.498 -40 -54.1074 -127z" />
    <glyph glyph-name="uni0206" unicode="&#x206;" horiz-adv-x="576" 
d="M369.064 844q-12.3994 -16 -25.7744 -26t-22.6367 -13q-20.6123 -7 -20.3877 7q0.661133 19 2.06055 35q2.23633 37 39.9102 79q45.373 50 85.7227 54q29.2627 3 59.6504 -4q83.3379 -19 58.2422 -123q-3.0498 -12 -16.9053 -27.5q-13.8564 -15.5 -27.5996 -24
t-21.874 -10q-8.13184 -1.5 -11.8252 2q-3.69434 3.5 -1.99414 11.5q19.084 81 -46.6914 95q-18.6504 4 -33.6504 4q-3.31152 -15 -3.58008 -29.5q-0.267578 -14.5 -12.667 -30.5zM647.297 758q10 0 9.12598 -10q-0.961914 -11 -13.8613 -27t-29.9053 -27.5t-28.0059 -11.5
h-337l-48.4902 -280h341q15 0 6.33789 -19q-10.1865 -25 -34.0859 -41t-34.8994 -16h-292l-49.1895 -288h385q15 0 6.33887 -19q-10.1865 -25 -34.0859 -41t-34.8994 -16h-393q-7.08789 -1 -10.2812 2.5q-3.19434 3.5 -1.49512 11.5l123.799 718q1.96289 11 15.4492 28
q24.5361 29 49.0615 35q5.08691 1 7.08691 1h4h394z" />
    <glyph glyph-name="uni0207" unicode="&#x207;" horiz-adv-x="526" 
d="M331.064 637q-12.3994 -16 -25.7744 -26t-22.6367 -13q-20.6123 -7 -20.3877 7q0.661133 19 2.06055 35q2.23633 37 39.9102 79q45.373 50 85.7227 54q29.2627 3 59.6504 -4q83.3379 -19 58.2422 -123q-3.0498 -12 -16.9053 -27.5q-13.8564 -15.5 -27.5996 -24
t-21.874 -10q-8.13184 -1.5 -11.8252 2q-3.69434 3.5 -1.99414 11.5q19.084 81 -46.6914 95q-18.6504 4 -33.6504 4q-3.31152 -15 -3.58008 -29.5q-0.267578 -14.5 -12.667 -30.5zM163.467 234q-20.1807 -185 143.856 -196q34.7383 -3 63.1748 2q36.5254 6 41.2246 14
q9.3125 15 26.0371 29t30.1182 18.5t17.6934 -3.5q5.86328 -13 -23.1104 -47t-58.1797 -53.5q-29.2051 -19.5 -55.8174 -26.5q-59.3994 -16 -105.787 -9q-195.863 13 -155.222 249q12.3848 73 33.0635 126.5q20.6797 53.5 59.79 100.5q89.4463 108 208.009 103
q188.388 -7 136.047 -251q-12.498 -40 -44.9854 -57q-12.6123 -7 -26.5244 -6zM177.026 309q7.1748 2 11.1748 2l265.476 -6q10.5566 155 -129.006 160q-67.7383 3 -93.5371 -29q-33.498 -40 -54.1074 -127z" />
    <glyph glyph-name="uni0208" unicode="&#x208;" horiz-adv-x="247" 
d="M91.9648 997.5q16.1807 13.5 30.0742 18t17.1943 -3.5l56.0176 -137q3.2998 -8 -6.51172 -23q-9.8125 -15 -25.9932 -28.5t-30.0742 -18t-17.1934 3.5l-56.0176 137q-3.30078 8 6.51172 23q9.81152 15 25.9922 28.5zM227.64 999.5q16.6807 13.5 29.9873 17
q13.3057 3.5 15.5186 -5.5l38.3672 -133q2.30078 -8 -7.55469 -23.5q-9.85645 -15.5 -26.4932 -28.5t-29.9863 -17q-13.3506 -4 -15.5635 5l-38.3672 133q-2.2998 8 7.55566 23.5t26.5361 29zM209.104 721.5q13.3564 15.5 27.1436 24.5t21.9619 11q18.4375 5 16.0381 -11
l-123.974 -720q-1.96289 -11 -15.3623 -27t-27.1865 -25t-21.9619 -11q-18.4375 -5 -16.0381 11l123.974 720q2.0498 12 15.4053 27.5z" />
    <glyph glyph-name="uni0209" unicode="&#x209;" 
d="M62.9648 790.5q16.1807 13.5 30.0742 18t17.1943 -3.5l56.0176 -137q3.2998 -8 -6.51172 -23q-9.8125 -15 -25.9932 -28.5t-30.0742 -18t-17.1934 3.5l-56.0176 137q-3.30078 8 6.51172 23q9.81152 15 25.9922 28.5zM198.64 792.5q16.6807 13.5 29.9873 17
q13.3057 3.5 15.5186 -5.5l38.3672 -133q2.30078 -8 -7.55469 -23.5q-9.85645 -15.5 -26.4932 -28.5t-29.9863 -17q-13.3506 -4 -15.5635 5l-38.3672 133q-2.2998 8 7.55566 23.5t26.5361 29zM165.169 505q13.3994 16 27.1426 24.5q13.7441 8.5 22.9189 10.5
q18.3496 4 15.0381 -11l-97.082 -504q-2.0498 -12 -15.4053 -27.5t-27.0986 -24q-13.7441 -8.5 -22.9189 -10.5q-18.3496 -4 -14.9502 12l96.9941 503q1.96191 11 15.3613 27z" />
    <glyph glyph-name="uni020A" unicode="&#x20a;" horiz-adv-x="247" 
d="M186.064 844q-12.3994 -16 -25.7744 -26t-22.6367 -13q-20.6123 -7 -20.3877 7q0.661133 19 2.06055 35q2.23633 37 39.9102 79q45.373 50 85.7227 54q29.2627 3 59.6504 -4q83.3379 -19 58.2422 -123q-3.0498 -12 -16.9053 -27.5q-13.8564 -15.5 -27.5996 -24
t-21.874 -10q-8.13184 -1.5 -11.8252 2q-3.69434 3.5 -1.99414 11.5q19.084 81 -46.6914 95q-18.6504 4 -33.6504 4q-3.31152 -15 -3.58008 -29.5q-0.267578 -14.5 -12.667 -30.5zM209.104 721.5q13.3564 15.5 27.1436 24.5t21.9619 11q18.4375 5 16.0381 -11l-123.974 -720
q-1.96289 -11 -15.3623 -27t-27.1865 -25t-21.9619 -11q-18.4375 -5 -16.0381 11l123.974 720q2.0498 12 15.4053 27.5z" />
    <glyph glyph-name="uni020B" unicode="&#x20b;" 
d="M157.064 637q-12.3994 -16 -25.7744 -26t-22.6367 -13q-20.6123 -7 -20.3877 7q0.661133 19 2.06055 35q2.23633 37 39.9102 79q45.373 50 85.7227 54q29.2627 3 59.6504 -4q83.3379 -19 58.2422 -123q-3.0498 -12 -16.9053 -27.5q-13.8564 -15.5 -27.5996 -24
t-21.874 -10q-8.13184 -1.5 -11.8252 2q-3.69434 3.5 -1.99414 11.5q19.084 81 -46.6914 95q-18.6504 4 -33.6504 4q-3.31152 -15 -3.58008 -29.5q-0.267578 -14.5 -12.667 -30.5zM165.169 505q13.3994 16 27.1426 24.5q13.7441 8.5 22.9189 10.5q18.3496 4 15.0381 -11
l-97.082 -504q-2.0498 -12 -15.4053 -27.5t-27.0986 -24q-13.7441 -8.5 -22.9189 -10.5q-18.3496 -4 -14.9502 12l96.9941 503q1.96191 11 15.3613 27z" />
    <glyph glyph-name="uni020C" unicode="&#x20c;" horiz-adv-x="673" 
d="M316.965 997.5q16.1807 13.5 30.0742 18t17.1943 -3.5l56.0176 -137q3.2998 -8 -6.51172 -23q-9.8125 -15 -25.9932 -28.5t-30.0742 -18t-17.1934 3.5l-56.0176 137q-3.30078 8 6.51172 23q9.81152 15 25.9922 28.5zM452.64 999.5q16.6807 13.5 29.9873 17
q13.3057 3.5 15.5186 -5.5l38.3672 -133q2.30078 -8 -7.55469 -23.5q-9.85645 -15.5 -26.4932 -28.5t-29.9863 -17q-13.3506 -4 -15.5635 5l-38.3672 133q-2.2998 8 7.55566 23.5t26.5361 29zM498.297 758q261.301 -8 189.452 -395q-31.8682 -170 -112.527 -269
q-112.982 -137 -274.545 -132q-262.301 8 -196.076 365q17.3965 96 46.1934 168q28.7979 72 77.8711 130q113.069 138 269.632 133zM435.65 682q-105.738 3 -156.073 -58q-26.8867 -33 -52.9844 -97t-41.4443 -148q-62.125 -333 178.175 -341q109.65 -4 159.985 57
q24.624 30 47.5664 86.5q22.9414 56.5 36.3262 129.5q67.749 363 -171.551 371z" />
    <glyph glyph-name="uni020D" unicode="&#x20d;" horiz-adv-x="538" 
d="M236.965 790.5q16.1807 13.5 30.0742 18t17.1943 -3.5l56.0176 -137q3.2998 -8 -6.51172 -23q-9.8125 -15 -25.9932 -28.5t-30.0742 -18t-17.1934 3.5l-56.0176 137q-3.30078 8 6.51172 23q9.81152 15 25.9922 28.5zM372.64 792.5q16.6807 13.5 29.9873 17
q13.3057 3.5 15.5186 -5.5l38.3672 -133q2.30078 -8 -7.55469 -23.5q-9.85645 -15.5 -26.4932 -28.5t-29.9863 -17q-13.3506 -4 -15.5635 5l-38.3672 133q-2.2998 8 7.55566 23.5t26.5361 29zM407.317 541q182.601 -16 121.674 -301q-24.9707 -114 -83.0059 -183
q-89.2715 -106 -207.309 -95q-200.426 18 -148.26 260q15.0352 69 37.083 121t60.9844 97q94.7949 112 218.833 101zM342.671 465q-75.3877 7 -105.537 -29q-16.6611 -19 -35.4658 -62.5t-30.8779 -101.5q-47.0674 -218 132.533 -234q68.4756 -6 93.0117 23
q12.3125 15 27.3301 49.5t24.9531 79.5q56.8281 261 -105.947 275z" />
    <glyph glyph-name="uni020E" unicode="&#x20e;" horiz-adv-x="673" 
d="M411.064 844q-12.3994 -16 -25.7744 -26t-22.6367 -13q-20.6123 -7 -20.3877 7q0.661133 19 2.06055 35q2.23633 37 39.9102 79q45.373 50 85.7227 54q29.2627 3 59.6504 -4q83.3379 -19 58.2422 -123q-3.0498 -12 -16.9053 -27.5q-13.8564 -15.5 -27.5996 -24
t-21.874 -10q-8.13184 -1.5 -11.8252 2q-3.69434 3.5 -1.99414 11.5q19.084 81 -46.6914 95q-18.6504 4 -33.6504 4q-3.31152 -15 -3.58008 -29.5q-0.267578 -14.5 -12.667 -30.5zM498.297 758q261.301 -8 189.452 -395q-31.8682 -170 -112.527 -269
q-112.982 -137 -274.545 -132q-262.301 8 -196.076 365q17.3965 96 46.1934 168q28.7979 72 77.8711 130q113.069 138 269.632 133zM435.65 682q-105.738 3 -156.073 -58q-26.8867 -33 -52.9844 -97t-41.4443 -148q-62.125 -333 178.175 -341q109.65 -4 159.985 57
q24.624 30 47.5664 86.5q22.9414 56.5 36.3262 129.5q67.749 363 -171.551 371z" />
    <glyph glyph-name="uni020F" unicode="&#x20f;" horiz-adv-x="538" 
d="M331.064 637q-12.3994 -16 -25.7744 -26t-22.6367 -13q-20.6123 -7 -20.3877 7q0.661133 19 2.06055 35q2.23633 37 39.9102 79q45.373 50 85.7227 54q29.2627 3 59.6504 -4q83.3379 -19 58.2422 -123q-3.0498 -12 -16.9053 -27.5q-13.8564 -15.5 -27.5996 -24
t-21.874 -10q-8.13184 -1.5 -11.8252 2q-3.69434 3.5 -1.99414 11.5q19.084 81 -46.6914 95q-18.6504 4 -33.6504 4q-3.31152 -15 -3.58008 -29.5q-0.267578 -14.5 -12.667 -30.5zM407.317 541q182.601 -16 121.674 -301q-24.9707 -114 -83.0059 -183
q-89.2715 -106 -207.309 -95q-200.426 18 -148.26 260q15.0352 69 37.083 121t60.9844 97q94.7949 112 218.833 101zM342.671 465q-75.3877 7 -105.537 -29q-16.6611 -19 -35.4658 -62.5t-30.8779 -101.5q-47.0674 -218 132.533 -234q68.4756 -6 93.0117 23
q12.3125 15 27.3301 49.5t24.9531 79.5q56.8281 261 -105.947 275z" />
    <glyph glyph-name="uni0218" unicode="&#x218;" horiz-adv-x="624" 
d="M327.424 -49q16.6377 13 29.3564 15.5q12.7178 2.5 14.9307 -6.5q20.1553 -124 -88.5039 -223q-16.2246 -14 -31.249 -20q-15.0254 -6 -20 0q-4.97559 6 2.79297 20.5q7.76758 14.5 20.8174 26.5t21.3613 27q26.1982 48 13.3594 107q-1.21289 9 9.64258 24.5
t27.4922 28.5zM641.187 539.5q-16.1807 -13.5 -30.5742 -18t-17.7812 2.5q-28.3154 65 -84.5537 108q-56.2393 43 -123.627 50q-41.6504 4 -73.9814 -5.5t-45.9678 -22.5t-22.5674 -46.5q-8.92969 -33.5 4.57129 -73.5q13.502 -40 48.1836 -66.5
q34.6826 -26.5 87.0205 -45.5q2.91309 -1 37.8193 -13.5q34.9072 -12.5 53.207 -20.5q124.189 -55 130.744 -163q4.70215 -72 -47.333 -141q-29.498 -40 -70.0352 -69q-101.297 -72 -211.635 -53q-73.8633 13 -131.621 61.5q-57.7588 48.5 -85.6357 118.5
q-3.30078 8 6.51172 23q9.81152 15 25.9922 28.5t30.0742 18q13.8945 4.5 17.1943 -3.5q27.2275 -66 81.7041 -112t117.015 -57t105.306 3.5q42.7686 14.5 57.5176 34.5q27.2363 37 23.8721 90q-5.69141 95 -121.143 147q-17.3008 8 -52.3389 19q-90.2012 32 -128.577 62
t-54.3965 75.5t-0.709961 100.5t68.8584 107q97.0469 92 214.997 80q74.3008 -8 133.821 -53.5t89.5723 -113.5q3.3877 -7 -5.96777 -22.5t-25.5361 -29z" />
    </font>
</defs>
</svg>
